<svg xmlns="http://www.w3.org/2000/svg">
<defs>
<font
       vert-adv-y="90"
       vert-origin-y="90"
       vert-origin-x="45"
       horiz-origin-y="0"
       horiz-origin-x="0"
       id="FontID0"
       horiz-adv-x="710"
       font-variant="normal"
       font-style="normal"
       font-weight="700"><font-face
         font-family="Lato"
         id="font-face2"><font-face-src><font-face-name
             name="Lato Bold" /></font-face-src></font-face><glyph
         unicode="B"
         horiz-adv-x="651"
         d="M73.003 0v722.993h249.499c47.338 0 87.831-4.489 121.335-13.498 33.504-8.993 60.996-21.833 82.493-38.489 21.497-16.672 37.175-36.838 47.178-60.5 9.987-23.676 14.988-50.335 14.988-80.007 0-16.993-2.5-33.168-7.502-48.67-5.001-15.5-12.664-29.992-23.164-43.49-10.5-13.498-23.837-25.841-39.996-36.838-16.175-10.997-35.508-20.327-57.838-28.005C559.336 351.166 609 297.495 609 212.5c0-30.667-5.835-59.009-17.506-84.994-11.654-26.002-28.662-48.348-50.993-67.168-22.33-18.836-49.839-33.68-82.509-44.34C425.338 5.339 388.002 0 346.003 0h-273zm134.496 317.004V105h136.5c25.008 0 46.008 2.998 62.84 8.993 16.832 6.012 30.33 14.01 40.493 24.014 10.163 9.987 17.505 21.657 21.994 34.994 4.504 13.338 6.668 27.493 6.668 42.497 0 15.662-2.5 29.833-7.502 42.337-4.985 12.504-12.824 23.164-23.485 31.997-10.676 8.833-24.334 15.501-41.006 20.166-16.671 4.665-36.838 7.006-60.499 7.006H207.499zm0 92.993H315c45.671 0 80.329 8.336 104.006 25.008 23.661 16.655 35.492 43.17 35.492 79.495 0 37.672-10.66 64.507-31.997 80.505-21.337 15.999-54.664 23.998-99.999 23.998H207.5V409.997z"
         id="glyph8" /><glyph
         unicode="K"
         horiz-adv-x="698"
         d="M212.004 420h31.5c12.664 0 23.164 1.827 31.5 5.338 8.336 3.495 15.502 8.993 21.497 16.656L496 694.507c8.336 10.66 17.169 18.162 26.338 22.33 9.17 4.168 20.663 6.156 34.658 6.156h115.997L429.506 422.501c-7.679-9.33-15.005-17.169-22.01-23.5-6.99-6.333-14.491-11.495-22.49-15.502 10.996-3.992 21-9.667 29.832-16.993 8.833-7.341 17.33-16.671 25.665-28.005L691.493.001H572.498C556.5 0 544.669 2.34 536.83 6.828c-7.823 4.505-14.492 10.997-19.83 19.67L312.5 293.503c-6.67 8.656-14.172 15.004-22.508 18.836-8.32 3.83-20.166 5.658-35.491 5.658h-42.497V0H77.508v724.003h134.496V420z"
         id="glyph10" /><glyph
         unicode="S"
         horiz-adv-x="536"
         d="M460.493 590.997c-3.655-7.326-7.823-12.504-12.664-15.502-4.825-2.997-10.66-4.488-17.33-4.488-6.668 0-14.17 2.661-22.506 7.823-8.32 5.178-18.163 10.836-29.496 17.169-11.334 6.332-24.495 12.167-39.66 17.329-15.165 5.177-33.167 7.678-53.83 7.678-18.676 0-34.835-2.18-48.669-6.669-13.834-4.504-25.504-10.836-35.01-18.835-9.49-8-16.656-17.506-21.321-28.663-4.681-11.173-7.006-23.5-7.006-36.838 0-16.832 4.826-31.003 14.332-42.337 9.506-11.333 21.994-21 37.671-28.999 15.662-8 33.488-15.165 53.494-21.497 20.006-6.332 40.51-13.16 61.333-20.343 20.84-6.989 41.167-15.325 61.173-24.83 19.99-9.49 37.832-21.498 53.494-35.99 15.661-14.507 28.342-32.333 37.832-53.173 9.506-21 14.17-46.504 14.17-76.497 0-32.67-5.498-63.177-16.671-91.663-11.157-28.502-27.492-53.333-48.99-74.51-21.512-21.16-47.835-37.832-78.838-49.999C330.998-2.004 295.507-7.999 255.494-7.999c-22.987 0-45.654 2.34-68.001 6.829-22.33 4.504-43.667 10.836-64.154 19.172-20.503 8.336-39.676 18.339-57.502 29.993-17.842 11.67-33.84 24.671-47.835 39.002l39.003 64.507c3.655 4.665 8.16 8.496 13.321 11.654C75.504 166.333 81.163 168 87.495 168c8.336 0 17.345-3.495 27.011-10.34 9.666-6.829 21.16-14.331 34.321-22.667 13.177-8.32 28.679-15.999 46.505-22.828 17.842-6.829 39.162-10.163 64.17-10.163 38.33 0 68.002 9.17 89.002 27.332s31.5 44.164 31.5 78.165c0 18.996-4.665 34.497-14.171 46.504-9.507 11.991-22.17 22.17-37.832 30.33-15.662 8.16-33.504 15.004-53.494 20.663a1792.658 1792.658 0 00-61.013 18.5c-20.663 6.668-40.99 14.667-60.996 23.997-20.006 9.346-37.832 21.513-53.494 36.502-15.677 15.004-28.165 33.84-37.671 56.33C51.827 462.834 47 490.502 47 523.493c0 26.338 5.339 52.003 15.839 77.01 10.5 24.992 25.825 47.163 45.991 66.495 20.167 19.333 44.838 34.835 74.173 46.505 29.336 11.67 62.824 17.505 100.495 17.505 42.674 0 81.997-6.669 118.001-20.182 36.005-13.322 66.671-32.157 92-56.332l-33.007-63.496z"
         id="glyph12" /><glyph
         unicode="T"
         horiz-adv-x="595"
         d="M582.501 724.003V613.008H364.999V.498H230.503v612.51H12.007v110.995h570.494z"
         id="glyph14" /><glyph
         unicode="a"
         horiz-adv-x="523"
         d="M467.995 0h-55.498c-11.67 0-20.823 1.827-27.492 5.338-6.669 3.495-11.67 10.5-15.005 21.16L359.004 63c-13.001-11.67-25.665-21.834-38.17-30.666-12.503-8.833-25.504-16.336-38.841-22.33C268.67 4.007 254.5-.497 239.496-3.496 224.507-6.493 207.836-8 189.496-8 167.84-8 147.833-5.003 129.495.833 111.172 6.668 95.494 15.34 82.333 27.171 69.172 38.825 58.832 53.333 51.506 70.838c-7.342 17.329-11.013 37.495-11.013 60.66 0 19.332 5.178 38.505 15.341 57.34 10.164 18.997 26.996 35.989 50.673 51.154 23.66 15.341 55.16 28.005 94.5 38.008 39.323 10.003 88.168 15.005 146.487 15.005v30.153c0 34.674-7.166 60.34-21.658 76.835C311.33 416.665 290.17 425 262.5 425c-20.006 0-36.662-2.34-50-7.005-13.337-4.665-24.83-9.827-34.673-15.662-9.827-5.835-18.997-11.173-27.332-15.838-8.336-4.665-17.49-6.99-27.493-6.99-8.336 0-15.501 2.165-21.497 6.493-6.011 4.328-10.836 9.666-14.507 15.998l-22.491 39.5c58.992 54.343 130.168 81.499 213.494 81.499 29.993 0 56.828-5.002 80.329-14.828 23.5-9.827 43.33-23.501 59.666-41.006 16.335-17.49 28.838-38.49 37.335-62.824 8.496-24.334 12.664-51.01 12.664-80.008V0zM228.002 76.995c12.664 0 24.334 1.17 34.995 3.51 10.676 2.325 20.84 5.835 30.33 10.5 9.505 4.665 18.675 10.5 27.508 17.33 8.833 6.828 17.665 14.827 26.659 24.157V218c-35.989 0-65.998-2.324-90.156-6.829-24.174-4.505-43.667-10.34-58.335-17.505-14.668-7.006-25.008-15.325-31.164-24.671-6.171-9.49-9.345-19.654-9.345-30.827 0-21.834 6.508-37.672 19.332-47.001 12.84-9.507 29.513-14.171 50.176-14.171z"
         id="glyph16" /><glyph
         unicode="b"
         horiz-adv-x="569"
         d="M67.504 0v742.999h123.5V449.993c20.326 21.673 43.33 39.002 68.995 51.843 25.665 12.824 55.674 19.156 89.995 19.156 28.006 0 53.67-5.819 76.835-17.329 23.164-11.494 43.17-28.165 60.002-50.16 16.832-22.01 29.833-49.341 39.002-81.675 9.17-32.333 13.674-69.492 13.674-111.492 0-38.505-5.178-73.997-15.501-106.667-10.34-32.67-25.008-60.996-44.18-85.17-19.157-23.998-42.321-42.657-69.493-56.17C383.162-1.17 352.671-8 319.007-8c-15.678 0-30.009 1.668-43.01 4.826-13 3.174-24.83 7.678-35.491 13.337-10.676 5.675-20.503 12.664-29.673 20.84a275.555 275.555 0 00-26.338 27.492l-5.498-34.498c-2.004-8.656-5.338-14.828-10.164-18.499C163.993 1.828 157.339 0 149.003 0H67.505zm239.993 425.001c-25.664 0-47.498-5.338-65.66-16.175-18.163-10.82-35.171-26.162-50.833-45.831v-229.99c13.994-17.345 29.336-29.336 45.831-36.165 16.495-6.845 34.337-10.34 53.67-10.34 18.66 0 35.492 3.495 50.496 10.5 15.005 7.006 27.83 17.666 38.33 31.997s18.499 32.51 24.173 54.344c5.66 21.833 8.496 47.498 8.496 77.155 0 30.009-2.34 55.497-7.165 76.337-4.841 20.84-11.83 37.672-20.84 50.672-8.993 13.001-19.83 22.491-32.654 28.487-12.84 6.011-27.508 9.009-43.844 9.009z"
         id="glyph18" /><glyph
         unicode="c"
         horiz-adv-x="477"
         d="M426.492 404.001c-3.655-4.665-7.166-8.336-10.66-10.997-3.495-2.677-8.673-4.008-15.325-4.008-6.333 0-12.504 2.004-18.5 5.836-6.011 3.83-13.177 8.175-21.513 13-8.32 4.842-18.162 9.17-29.656 13.001-11.51 3.831-25.841 5.659-42.834 5.659-21.673 0-40.67-3.831-57.004-11.654-16.335-7.84-29.833-19.173-40.67-33.84-10.836-14.492-18.996-32.334-24.334-53.158-5.322-20.68-8-44.34-8-70.502 0-27.332 2.998-51.666 8.834-73.003 5.835-21.337 14.17-39.163 25.167-53.67 10.997-14.492 24.335-25.505 39.997-32.991 15.678-7.502 33.343-11.173 53.013-11.173 19.653 0 35.667 2.34 47.819 7.165 12.167 4.842 22.346 10.164 30.666 15.999 8.336 5.835 15.678 11.173 21.834 15.998 6.171 4.842 13 7.342 20.679 7.342 9.987 0 17.49-4.007 22.49-11.67l35.508-45.334c-13.674-15.999-28.502-29.336-44.5-40.173-15.999-10.82-32.51-19.493-49.663-26.001-17.169-6.493-35.01-11.157-53.333-13.835-18.34-2.66-36.502-3.991-54.504-3.991-31.677 0-61.51 5.995-89.499 17.826-28.005 11.846-52.34 28.999-73.163 51.666-20.84 22.844-37.335 50.512-49.502 83.343-12.167 32.99-18.34 70.326-18.34 112.502 0 37.656 5.5 72.49 16.336 104.824 10.837 32.173 26.659 60.002 47.659 83.503 21 23.5 47.001 42 78.004 55.337 31.003 13.338 66.671 19.99 107.004 19.99 38.33 0 71.993-6.155 100.832-18.66 28.84-12.327 54.664-30.169 77.668-53.333l-32.51-44.997z"
         id="glyph20" /><glyph
         unicode="d"
         horiz-adv-x="569"
         d="M427.005 0c-15.998 0-26.498 7.326-31.5 22.17l-10.003 48.67c-10.676-11.847-21.834-22.667-33.504-32.173-11.67-9.667-24.158-17.826-37.671-24.832-13.498-7.005-27.99-12.327-43.491-16.175-15.502-3.83-32.334-5.658-50.336-5.658-28.005 0-53.67 5.835-76.995 17.505-23.34 11.654-43.346 28.663-60.178 50.833-16.832 22.154-29.833 49.502-38.986 82.156-9.17 32.67-13.835 70.006-13.835 112.005 0 37.993 5.162 73.34 15.502 105.994 10.323 32.67 25.152 61.012 44.484 85.01 19.35 23.998 42.513 42.834 69.509 56.331 26.995 13.498 57.325 20.167 91.005 20.167 28.663 0 53.157-4.665 73.5-13.834 20.327-9.33 38.49-21.674 54.488-37.175V743h123.499V0h-75.488zM262.5 89.995c25.665 0 47.498 5.339 65.5 15.839 18.003 10.5 34.995 25.328 50.994 44.66v226.512c-13.995 18.499-29.16 31.5-45.655 39.162-16.512 7.502-34.338 11.334-53.334 11.334-18.675 0-35.507-3.495-50.672-10.5-15.165-7.006-28.005-17.506-38.505-31.677-10.5-14.155-18.66-32.157-24.335-53.99-5.658-21.674-8.496-47.499-8.496-76.995 0-30.009 2.5-55.337 7.342-76.177 4.825-20.824 11.654-37.832 20.663-50.993 8.994-13.177 19.99-22.667 32.991-28.502 13.001-5.835 27.509-8.673 43.507-8.673z"
         id="glyph22" /><glyph
         unicode="e"
         horiz-adv-x="534"
         d="M278.001 520.992c32.334 0 62.166-5.162 89.338-15.486 27.156-10.5 50.496-25.504 70.166-45.51 19.67-19.83 34.994-44.325 45.991-73.164 10.997-28.999 16.496-62.006 16.496-99.164 0-9.33-.32-17.169-1.155-23.34-.833-6.156-2.34-10.998-4.504-14.492-2.164-3.495-5.162-5.996-8.833-7.503-3.67-1.506-8.336-2.34-13.995-2.34H154.501c3.671-52.324 17.826-90.653 42.497-115.163 24.671-24.495 57.342-36.822 97.995-36.822 20.006 0 37.335 2.324 51.843 6.99 14.491 4.664 27.155 9.666 37.992 15.34 10.837 5.66 20.343 10.821 28.502 15.502 8.176 4.488 15.999 6.829 23.661 6.829 5.002 0 9.346-1.01 13.001-2.998 3.671-2.004 6.845-4.841 9.506-8.512L495.503 76c-13.674-15.999-29-29.336-46.008-40.173-16.992-10.82-34.658-19.493-53.157-26.001-18.5-6.492-37.335-11.157-56.508-13.834C320.674-6.668 301.998-8 283.996-8c-35.668 0-68.835 5.995-99.501 17.826-30.667 11.847-57.325 29.336-79.993 52.5-22.667 23.18-40.509 51.843-53.51 86.004-13 34.337-19.493 73.836-19.493 119.01 0 34.995 5.66 67.826 16.993 98.829 11.333 30.827 27.668 57.662 48.845 80.505 21.16 22.828 47.001 40.99 77.491 54.328 30.506 13.337 64.844 19.99 103.172 19.99zm2.5-88.985c-36.004 0-64.17-10.18-84.496-30.507-20.343-20.326-33.344-49.165-39.002-86.5h231.994c0 15.998-2.165 31.163-6.493 45.334-4.344 14.171-10.997 26.499-20.006 37.159-8.993 10.676-20.327 19.172-34 25.344-13.659 6.156-29.657 9.17-47.996 9.17z"
         id="glyph24" /><glyph
         unicode="g"
         horiz-adv-x="517"
         d="M243.504 522.002c21.994 0 42.657-2.34 61.99-6.829 19.333-4.505 36.998-11.173 53.013-19.846h147.497v-47.162c0-7.839-2.004-13.994-6.012-18.499-3.991-4.504-10.82-7.502-20.487-9.17l-46.007-8.832c3.334-8.496 5.995-17.666 7.839-27.172 1.827-9.49 2.66-19.653 2.66-30.153 0-25.168-5-47.835-15.164-68.002-10.163-20.342-24.158-37.671-42-51.842-17.826-14.155-39.002-25.168-63.497-32.83-24.495-7.824-51.17-11.671-79.832-11.671-19.333 0-38.169 1.843-56.508 5.498C170.998 185.666 163 174.67 163 162.502c0-10.5 4.841-18.163 14.331-23.004 9.506-5.002 22.01-8.496 37.511-10.5 15.486-2.004 32.991-2.998 52.66-2.998 19.67 0 39.837-.834 60.5-2.5a476.401 476.401 0 0060.5-8.834c19.669-4.167 37.334-10.66 52.836-19.83 15.5-9.007 27.988-21.176 37.494-36.836 9.506-15.502 14.171-35.492 14.171-60.003 0-22.667-5.498-44.66-16.672-66.158C465.174-89.498 449-108.67 427.84-125.326c-21.176-16.672-47.178-30.17-77.844-40.333-30.666-10.18-65.661-15.341-105-15.341-39.002 0-72.827 3.83-101.49 11.333-28.678 7.502-52.339 17.505-71.175 29.993-18.835 12.504-32.99 26.835-42.336 43.17C20.665-80.168 16-63.16 16-45.494c0 23.997 7.342 44.324 21.994 60.66 14.667 16.334 35.009 29.334 61.011 39C86.341 61.173 76.162 70.502 68.5 82.173c-7.662 11.654-11.494 26.835-11.494 45.655 0 7.678 1.33 15.501 3.992 23.837 2.677 8.176 6.845 16.175 12.343 24.174 5.499 8 12.328 15.662 20.664 22.827 8.336 7.166 18.162 13.674 29.496 19.333-26.002 13.995-46.328 32.67-61.173 55.995-14.828 23.34-22.33 50.672-22.33 82.012 0 25.328 5.178 48.332 15.341 68.835 10.164 20.487 24.334 37.992 42.497 52.5 18.163 14.492 39.66 25.489 64.507 33.151 24.831 7.679 51.827 11.51 81.162 11.51zm135.49-543.835c0 10.34-2.998 18.66-8.993 25.168-5.996 6.492-14.171 11.494-24.495 15.165-10.34 3.494-22.346 6.172-36.165 7.999-13.834 1.667-28.502 2.5-44.003 2.5h-48.012c-16.495 0-32.494 1.828-47.819 5.5-14.01-7.84-25.168-16.833-33.68-27.333-8.496-10.66-12.824-22.667-12.824-36.501 0-8.993 2.324-17.506 6.829-25.328 4.504-7.84 11.67-14.508 21.497-20.343 9.842-5.659 22.506-9.987 38.168-13.161 15.678-3.158 34.835-4.825 57.502-4.825 23.004 0 42.833 1.827 59.505 5.322 16.656 3.67 30.49 8.672 41.327 15.004 10.836 6.172 18.675 13.835 23.677 22.507 4.985 8.657 7.486 18.163 7.486 28.326zm-135.49 290.826c15.325 0 28.663 2.004 39.996 6.172 11.334 4.168 20.84 10.003 28.326 17.329 7.502 7.181 13.177 16.014 17.008 26.338 3.832 10.34 5.66 21.673 5.66 34 0 25.168-7.487 45.175-22.668 60.003-15.165 14.828-37.992 22.17-68.322 22.17-30.33 0-52.997-7.342-68.178-22.17C160.161 398.007 152.5 378 152.5 352.833c0-11.991 2.003-23.165 5.835-33.504 3.831-10.324 9.506-19.157 16.992-26.66 7.502-7.501 17.009-13.336 28.502-17.504 11.51-4.168 24.671-6.172 39.676-6.172z"
         id="glyph26" /><glyph
         unicode="i"
         horiz-adv-x="270"
         d="M197.496 512.993V0H73.997v512.993h123.499zm18.5 149.837c0-10.837-2.165-20.824-6.493-30.17-4.328-9.33-10.003-17.489-17.169-24.654-7.165-7.006-15.662-12.504-25.328-16.672-9.666-4.168-20.006-6.332-31.003-6.332-10.676 0-20.663 2.164-30.17 6.332-9.506 4.168-17.825 9.666-24.83 16.672-7.006 7.165-12.505 15.325-16.672 24.655-4.168 9.345-6.333 19.332-6.333 30.169 0 10.997 2.165 21.337 6.333 31.003 4.167 9.666 9.666 18.002 16.671 25.168 7.006 7.005 15.325 12.504 24.832 16.672 9.506 4.168 19.493 6.332 30.169 6.332 10.997 0 21.337-2.164 31.003-6.332 9.666-4.168 18.163-9.667 25.328-16.672 7.166-7.166 12.84-15.502 17.169-25.168 4.328-9.666 6.492-20.006 6.492-31.003z"
         id="glyph28" /><glyph
         unicode="k"
         horiz-adv-x="551"
         d="M191.004 742.999V317.998h23.004c8.32 0 14.828 1.17 19.493 3.495 4.665 2.34 9.666 6.668 15.004 13l127.491 157.003c5.675 6.67 11.67 12.007 18.003 15.839 6.332 3.83 14.668 5.658 25.007 5.658h113L372.5 322.503a216.647 216.647 0 00-17.505-19.173c-5.995-5.835-12.504-10.997-19.493-15.325a92.61 92.61 0 0018.5-17.506c5.337-6.668 10.66-13.834 15.998-21.496L540.999 0H429.507c-9.667 0-17.842 1.667-24.511 5.001-6.669 3.334-12.664 8.993-18.002 16.992L256.506 216.492c-5.002 7.68-10.003 12.68-15.005 15.005-5.001 2.34-12.504 3.51-22.507 3.51h-27.99V.002H67.507V743h123.499z"
         id="glyph30" /><glyph
         unicode="l"
         horiz-adv-x="270"
         d="M197.496 742.999V0H73.997v742.999h123.499z"
         id="glyph32" /><glyph
         unicode="n"
         horiz-adv-x="568"
         d="M65.998 0v512.993H141.5c15.999 0 26.499-7.486 31.5-22.49l8.497-40.51a281.191 281.191 0 0032.83 29 229.048 229.048 0 0036.502 22.506c12.84 6.332 26.498 11.174 41.166 14.508 14.668 3.334 30.666 4.985 48.011 4.985 27.99 0 52.821-4.665 74.494-14.155 21.674-9.506 39.836-22.843 54.328-39.996 14.507-17.169 25.504-37.672 33.006-61.509 7.503-23.837 11.158-50.16 11.158-78.838V0h-123.5v326.494c0 31.34-7.165 55.674-21.657 72.843C353.33 416.505 331.496 425 302.496 425c-21.337 0-41.327-4.84-60.002-14.507-18.66-9.667-36.325-22.828-52.997-39.5V.002H65.998z"
         id="glyph34" /><glyph
         unicode="r"
         horiz-adv-x="408"
         d="M65.998 0v512.993h72.506c12.664 0 21.497-2.324 26.498-6.99 5.002-4.664 8.336-12.663 10.003-23.997L182.508 420c18.322 31.836 39.82 57.004 64.49 75.327 24.671 18.5 52.34 27.669 83.006 27.669 25.329 0 46.329-5.995 63-18.002l-15.998-92.496c-1.01-5.996-3.174-10.164-6.509-12.665-3.334-2.5-7.822-3.83-13.497-3.83-5.002 0-11.83 1.17-20.503 3.494-8.657 2.34-20.167 3.51-34.498 3.51-25.665 0-47.659-7.005-65.998-21.176-18.339-14.17-33.84-34.994-46.504-62.326V0h-123.5z"
         id="glyph36" /><glyph
         unicode="s"
         horiz-adv-x="436"
         d="M370.497 412.994c-3.334-5.322-6.829-8.993-10.5-11.157-3.671-2.164-8.336-3.335-13.995-3.335-5.995 0-12.343 1.668-19.172 5.002a1261.325 1261.325 0 01-23.837 11.334c-8.994 4.168-19.157 7.822-30.667 11.157-11.494 3.334-25.152 5.001-40.83 5.001-24.334 0-43.49-5.162-57.501-15.501-13.995-10.324-21-23.822-21-40.493 0-10.997 3.67-20.167 10.836-27.669 7.166-7.502 16.672-14.171 28.503-19.83 11.83-5.675 25.168-10.676 40.172-15.165 14.989-4.504 30.33-9.506 45.992-14.844 15.662-5.322 31.003-11.334 46.008-18.163 14.988-6.829 28.486-15.501 40.332-26.001 11.83-10.5 21.32-23.164 28.503-37.832C400.506 200.83 404 183.164 404 162.5c0-24.671-4.505-47.338-13.498-68.162-9.009-20.84-22.17-38.842-39.499-54.007-17.345-15.165-38.666-26.995-64.17-35.491C261.329-3.671 231.994-8 199.003-8c-17.666 0-34.835 1.667-51.667 4.825C130.504 0 114.33 4.328 98.828 10.003 83.326 15.66 68.995 22.33 55.834 29.993 42.673 37.67 31.003 46.007 21 55l28.502 47.338c3.67 5.66 8 9.988 13 13.162 5.002 2.997 11.334 4.504 18.997 4.504 7.662 0 15.005-2.164 21.834-6.508 6.829-4.328 14.667-8.993 23.66-13.995 9.01-5.001 19.67-9.666 31.837-13.994 12.167-4.345 27.509-6.509 46.168-6.509 14.668 0 27.332 1.667 37.832 5.162 10.5 3.51 19.173 8.176 26.002 13.834 6.829 5.675 11.83 12.168 15.004 19.67 3.158 7.502 4.665 15.341 4.665 23.34 0 11.991-3.495 21.657-10.66 29.336-7.182 7.663-16.672 14.331-28.503 19.99-11.846 5.675-25.344 10.837-40.509 15.341-15.165 4.489-30.666 9.33-46.488 14.668-15.838 5.322-31.34 11.494-46.505 18.66-15.165 7.165-28.662 16.335-40.509 27.332-11.83 10.997-21.32 24.494-28.486 40.333-7.182 15.998-10.837 35.33-10.837 57.998 0 21 4.168 41.006 12.488 60.002 8.336 18.996 20.68 35.508 36.838 49.663 16.175 14.17 36.342 25.504 60.5 34 24.174 8.513 52.003 12.665 83.663 12.665 35.347 0 67.504-5.82 96.504-17.49 28.999-11.67 53.173-26.995 72.506-46.007l-28.006-44.501z"
         id="glyph38" /></font><font
       font-weight="700"
       font-style="normal"
       font-variant="normal"
       horiz-adv-x="605"
       id="FontID0-0"
       fill-rule="nonzero"><font-face
         id="font-face1889"
         font-family="Calibri"><font-face-src><font-face-name
             name="Calibri Bold" /></font-face-src></font-face><glyph
         id="glyph1895"
         d="M525.997 189.664c0-22.491-3.159-42.831-9.326-61.17-6.167-18.162-14.676-34.322-25.5-48.332-11-13.995-24.002-25.99-39.006-36.16-15.166-10.17-31.83-18.339-49.992-24.996-18.175-6.508-37.671-11.34-58.338-14.336C323.168 1.498 300.173 0 274.836 0h-167.84C96.336 0 87.336 3.172 80 9.503c-7.338 6.33-11 16.664-11 31v550.993c0 14.336 3.662 24.67 11 31 7.338 6.331 16.337 9.504 26.997 9.504h158.337c38.666 0 71.34-3.336 98.161-9.83 26.834-6.508 49.339-16.337 67.678-29.503 18.488-13.165 32.498-29.83 42.164-50.006 9.83-20.163 14.663-43.825 14.663-71.163 0-15.33-2.001-29.666-5.827-43.158a130.607 130.607 0 00-17.005-36.84c-7.501-11.165-16.664-20.831-27.664-29.327-10.838-8.509-23.172-15.343-37.168-20.503 17.835-3.336 34.5-9 49.666-17.168 15.166-8.169 28.332-18.665 39.496-31.504 11.34-12.825 20.176-27.991 26.67-45.16 6.494-17.344 9.83-36.677 9.83-58.174zM359.995 456.005c0 12.662-2.001 23.989-5.827 34.159-3.84 10.006-9.666 18.502-17.495 25.173-7.842 6.657-17.671 11.668-29.502 15.33-11.831 3.499-27.665 5.337-47.502 5.337H195v-164h71.504c18.502 0 33.328 2.164 44.329 6.657 11 4.343 20.163 10.334 27.501 18.012 7.338 7.665 12.662 16.664 16.338 26.82 3.499 10.334 5.323 21.008 5.323 32.512zm33.002-271.011c0 14.676-2.492 27.842-7.325 39.51-4.833 11.49-12.008 21.156-21.51 28.998-9.327 7.829-21.335 13.833-35.998 18.162-14.663 4.166-33.668 6.33-57.167 6.33H195V97.998h92.66c17.835 0 32.838 1.838 45.173 5.663 12.171 3.676 22.668 9.34 31.667 16.678 8.836 7.325 15.834 16.324 20.994 27.324 5.01 10.838 7.502 23.336 7.502 37.331z"
         horiz-adv-x="560"
         unicode="B" /><glyph
         id="glyph1897"
         d="M489.006 579.339c0-9.503-.34-17.508-1.17-24.343-.831-6.657-2.002-11.994-3.663-15.997-1.675-4.166-3.676-7.161-6.168-9-2.341-2-5.173-2.994-8.005-2.994H312.004V17.495c0-3.159-1.007-6.168-3.172-8.822-2.165-2.506-5.664-4.67-10.497-6.345C293.502.831 286.831-.504 278.5-1.498c-8.332-1.007-18.666-1.497-31-1.497-12.335 0-22.669.49-31 1.497-8.333.994-15.004 2.329-19.837 3.826-4.833 1.675-8.332 3.84-10.497 6.345-2.165 2.654-3.159 5.663-3.159 8.822v509.51H24.996c-3.158 0-5.99.994-8.332 2.995-2.164 1.838-4.166 4.833-5.827 9-1.497 4.002-2.832 9.339-3.676 15.996-.83 6.835-1.157 14.84-1.157 24.343 0 9.666.327 17.998 1.157 24.833.844 6.834 2.179 12.335 3.676 16.324 1.661 4.166 3.663 7.011 5.827 8.836 2.342 1.837 5.174 2.668 8.332 2.668H470c2.832 0 5.5-.83 8.006-2.668 2.491-1.825 4.492-4.67 6.167-8.836 1.661-3.99 2.832-9.49 3.662-16.324.83-6.835 1.171-15.167 1.171-24.833z"
         horiz-adv-x="495"
         unicode="T" /><glyph
         id="glyph1899"
         d="M432.996 15.003c0-4.506-1.661-8.005-4.833-10.674-3.336-2.668-8.496-4.492-15.493-5.663-6.998-1.171-17.332-1.661-31.164-1.661-14.677 0-25.337.49-32.008 1.66-6.67 1.172-11.504 2.996-14.159 5.664-2.845 2.669-4.166 6.168-4.166 10.674v34.663c-18.012-19.17-38.338-33.996-61.333-44.67C246.995-5.663 221.495-11 193.503-11c-23.008 0-44.342 2.995-63.675 8.999-19.333 6.004-35.997 15.003-50.156 26.834C65.5 36.827 54.5 51.503 46.671 68.998c-7.842 17.672-11.668 38.162-11.668 61.497 0 25.5 4.996 47.501 14.826 66.167 10.007 18.842 24.833 34.172 44.506 46.507 19.66 12.158 44.002 21.17 73.328 26.998 29.176 5.827 63.171 8.835 101.837 8.835h42.504v26.33c0 13.67-1.334 25.664-4.166 35.998-2.668 10.17-7.338 18.842-13.669 25.677-6.33 6.82-14.663 11.83-25.336 15.166-10.497 3.159-23.662 4.833-39.17 4.833-20.49 0-38.828-2.341-54.825-6.834-16.174-4.506-30.333-9.666-42.668-15.167-12.335-5.5-22.668-10.673-31-15.166-8.332-4.507-15.003-6.835-20.163-6.835-3.676 0-6.835 1.158-9.503 3.336-2.832 2.328-5.174 5.663-6.835 9.83-1.838 4.166-3.172 9.502-4.166 15.67-1.007 6.154-1.497 12.988-1.497 20.326 0 10.17.83 18.162 2.491 24.003 1.498 5.827 4.67 11 9.176 15.833 4.656 4.67 12.498 9.83 23.99 15.494 11.34 5.677 24.669 11 39.999 15.833 15.343 5.01 32.007 9 50.006 12.008 18.161 3.159 36.827 4.657 55.996 4.657 34.173 0 63.335-3.322 87.664-9.993 24.166-6.672 44.166-17.005 59.672-30.837 15.67-13.833 27.161-31.668 34.336-53.492 7.162-21.674 10.66-47.678 10.66-77.507V15.004zM312.004 201.998H265.17c-19.836 0-36.664-1.497-50.673-4.33-13.996-3.008-25.337-7.337-34.159-13.341-8.836-5.827-15.167-12.825-19.17-21.157-4.165-8.333-6.166-17.835-6.166-28.51 0-18.324 5.827-32.66 17.33-42.994 11.505-10.497 27.502-15.67 48.006-15.67 17.168 0 33.001 4.343 47.5 13.165 14.5 8.836 29.163 21.674 44.166 38.665v74.172z"
         horiz-adv-x="493"
         unicode="a" /><glyph
         id="glyph1901"
         d="M474.997 16.5c0-3.498-.83-6.493-2.491-8.998-1.512-2.505-4.343-4.507-8.17-6.168C460.335-.163 454.998-1.334 448.34-2c-6.671-.667-14.84-.994-24.506-.994-10.497 0-19.006.327-25.5.994S386.666-.163 382.5 1.334c-4.003 1.661-6.998 3.826-8.673 6.168-1.824 2.505-2.831 5.5-2.831 9.162v48.509c-22.328-24.18-45.99-42.845-70.496-56.174-24.67-13.328-51.83-20-81.837-20-33.165 0-61.334 6.495-84.165 19.333-22.995 12.839-41.66 30.17-56.16 52.008-14.5 21.66-25.01 47.16-31.504 76.323-6.494 29.175-9.83 59.835-9.83 92.006 0 38.666 4.166 73.492 12.498 104.491 8.332 30.837 20.327 57.168 36.337 79.006 15.997 21.837 35.834 38.501 59.66 50.332 23.661 11.668 51 17.495 82 17.495 24.328 0 46.507-4.996 66.33-14.826 19.999-10.007 39.672-24.506 59.168-43.662v235.49c0 3.336.83 6.168 2.668 8.836 1.838 2.505 4.997 4.833 9.83 6.508 4.67 1.824 11 3.158 18.666 4.166 7.842.994 17.835 1.497 29.843 1.497 11.994 0 22-.503 29.829-1.497 7.665-1.008 13.996-2.342 18.502-4.166 4.493-1.675 7.828-4.003 9.666-6.508 2.002-2.668 2.996-5.5 2.996-8.836V16.5zm-122 291.16c-17.495 22.179-34.5 39.006-50.496 50.837-16.174 11.668-33.002 17.509-50.673 17.509-15.834 0-29.666-4.003-41.157-12.008-11.668-7.992-20.844-18.502-27.842-31.831-6.998-13.506-12.335-28.332-15.656-44.67-3.513-16.5-5.174-33.327-5.174-50.495 0-18.34 1.498-35.997 4.33-53.165 3.008-17.331 7.841-32.675 14.499-46.167 6.671-13.505 15.507-24.343 26.67-32.498 11.001-8.169 24.997-12.171 42.002-12.171 8.332 0 16.664 1.17 24.669 3.662 7.992 2.505 15.997 6.33 24.33 12.008 8.331 5.5 16.84 12.662 25.662 21.66 8.836 9 18.503 19.837 28.836 32.839v144.491z"
         horiz-adv-x="536"
         unicode="d" /><glyph
         id="glyph1903"
         d="M463.996 246.995c0-14.99-3.336-25.99-9.993-33.165-6.671-7.161-15.834-10.823-27.665-10.823H161.005c0-18.503 2.165-35.167 6.658-50.333 4.343-15.004 11.34-27.842 20.844-38.339 9.666-10.497 21.987-18.502 37.154-24.002 15.166-5.5 33.178-8.332 54.335-8.332 21.497 0 40.34 1.497 56.677 4.67 16.16 3.158 30.333 6.494 42.164 10.333 11.831 3.825 21.661 7.161 29.49 10.333 7.841 3.159 14.172 4.67 19.005 4.67 2.996 0 5.5-.504 7.339-1.675 2-1.17 3.662-3.172 4.996-6.167 1.17-2.832 2.165-6.998 2.669-12.335.503-5.323.667-12.158.667-20.163 0-7.161-.164-13.328-.504-18.339-.327-4.996-.83-9.326-1.498-12.825-.667-3.676-1.497-6.67-2.831-8.999-1.335-2.505-3.01-4.833-5.174-7.175-2.165-2.164-7.828-5.323-17.331-9.326-9.503-4.002-21.498-7.842-36.16-11.667-14.677-3.84-31.341-7.175-50.17-10.007S290.329-11 268.832-11c-38.829 0-72.66 4.834-101.837 14.663-28.999 9.667-53.328 24.507-73 44.343-19.497 19.823-33.996 44.996-43.663 75.166-9.503 30.333-14.336 65.826-14.336 106.493 0 38.665 4.997 73.505 15.167 104.668 10.006 31 24.67 57.33 44.002 79.005 19.17 21.66 42.504 38.161 70.006 49.502 27.664 11.491 58.665 17.155 93.164 17.155 36.5 0 67.664-5.324 93.504-16.16 25.99-10.661 47.161-25.664 63.825-44.67 16.501-18.992 28.836-41.66 36.664-67.664 7.842-26.004 11.668-54.336 11.668-84.996v-19.51zm-118.991 35.003c.994 34.5-6.004 61.674-20.844 81.333-14.826 19.836-37.658 29.666-68.658 29.666-15.67 0-29.34-2.995-40.843-8.836-11.654-5.827-21.32-13.655-29-23.662-7.664-9.993-13.491-21.66-17.494-35.166-4.166-13.67-6.494-28.005-7.161-43.335h184z"
         horiz-adv-x="503"
         unicode="e" /><glyph
         id="glyph1905"
         d="M184.994 16.5c0-3.171-.994-6.003-2.995-8.495-1.838-2.505-5.16-4.506-9.993-6.167-4.67-1.511-11-2.832-18.68-3.676-7.828-.83-17.82-1.157-29.829-1.157-11.994 0-22 .327-29.83 1.157-7.664.844-13.995 2.165-18.665 3.676-4.833 1.66-8.168 3.662-10.006 6.167C62.994 10.497 62 13.33 62 16.501v434.997c0 3.172.994 6.004 2.996 8.495 1.838 2.505 5.173 4.67 10.006 6.345 4.67 1.824 11 3.158 18.666 4.166 7.828.994 17.835 1.497 29.83 1.497 12.007 0 22-.503 29.829-1.497 7.678-1.008 14.009-2.342 18.679-4.166 4.833-1.675 8.155-3.84 9.993-6.345 2.001-2.491 2.995-5.323 2.995-8.495V16.5zm10.007 583.996c0-24.833-4.997-41.824-15.167-51.327S151 534.996 123.497 534.996c-27.664 0-46.493 4.507-55.996 13.67-9.667 9.162-14.5 25.663-14.5 49.338 0 24.833 4.997 42.001 15.003 51.668 9.83 9.489 28.659 14.322 56.5 14.322 27.325 0 45.99-4.656 55.834-13.996 9.83-9.162 14.663-25.663 14.663-49.502z"
         horiz-adv-x="245"
         unicode="i" /><glyph
         id="glyph1907"
         d="M193.993 2.001c0-34.172-2.995-61.837-8.822-83.007-5.84-21.157-14.677-38.829-26.508-53.328-11.994-14.5-26.834-25.337-44.832-32.662-17.835-7.338-38.829-11-62.995-11-13.342 0-24.67.83-34.172 2.668-9.503 1.825-16.338 3.663-20.504 5.664s-7.16 4.493-8.822 7.325c-1.511 3.008-2.668 6.344-3.335 10.17-.667 3.675-1.171 8.005-1.498 12.675-.34 4.656-.504 10.823-.504 18.325 0 9.162.164 16.84.667 22.831.504 6.004 1.498 10.837 2.669 14.5 1.334 3.676 2.832 6.167 4.493 7.842 1.497 1.66 3.676 2.491 6.33 2.491 1.512 0 4.834-.49 9.844-1.334 5.16-.83 10.496-1.157 16.323-1.157 8.51 0 15.834 1.334 22.002 3.825 6.004 2.669 11.177 6.671 15.003 12.335 3.84 5.664 6.834 13.002 8.672 21.838C70.006-29.162 71-15.003 71 4.329V451.5c0 3.172.994 6.003 2.996 8.495 1.838 2.505 5.173 4.67 9.666 6.344 4.67 1.825 10.837 3.159 18.665 4.166 7.842.994 17.835 1.498 30.007 1.498 11.994 0 22-.504 29.83-1.498 7.841-1.007 14.172-2.341 18.842-4.166 4.833-1.674 8.155-3.84 9.993-6.344 2.001-2.492 2.995-5.323 2.995-8.496V2.001zm9.013 598.494c0-24.833-5.01-41.823-15.003-51.326-9.83-9.503-28.673-14.173-56.5-14.173-27.339 0-46.004 4.506-55.834 13.669-9.83 9.163-14.663 25.663-14.663 49.339 0 24.833 4.997 42 15.167 51.667 10.156 9.49 28.822 14.323 56.323 14.323 27.665 0 46.508-4.657 56.01-13.996 9.667-9.163 14.5-25.664 14.5-49.503z"
         horiz-adv-x="255"
         unicode="j" /><glyph
         id="glyph1909"
         d="M755.007 16.5c0-3.171-1.007-6.003-3.009-8.495-1.838-2.505-5.16-4.506-9.666-6.167-4.67-1.511-10.837-2.832-18.666-3.676-7.828-.83-17.835-1.157-29.829-1.157-12.498 0-22.668.327-30.51 1.157-7.828.844-14.16 2.165-18.829 3.676-4.67 1.66-7.992 3.662-9.83 6.167C632.83 10.497 632 13.33 632 16.501v258.335c0 14.663-1.334 27.991-4.166 40-2.669 12.157-6.998 22.49-12.662 31-5.677 8.658-12.838 15.33-21.334 20.163-8.672 4.67-18.842 6.998-30.837 6.998-14.662 0-29.502-5.664-44.328-17.168-15.004-11.328-31.178-27.992-48.672-49.666V16.5c0-3.172-.994-6.004-2.996-8.496C465.167 5.5 461.832 3.5 457 1.838c-4.67-1.511-11-2.832-18.83-3.676-7.841-.83-17.67-1.157-29.338-1.157-12.158 0-22.165.327-29.993 1.157-7.842.844-14.173 2.165-18.843 3.676-4.833 1.661-8.155 3.662-9.993 6.167-2.001 2.492-3.009 5.324-3.009 8.496v258.335c0 14.663-1.32 27.991-4.166 40-2.655 12.157-6.82 22.49-12.498 31-5.5 8.658-12.661 15.33-21.334 20.163-8.822 4.67-19.155 6.998-30.823 6.998-15.003 0-29.843-5.664-44.833-17.168-15.003-11.328-31.177-27.992-48.345-49.666V16.5c0-3.172-.994-6.004-2.995-8.496-1.838-2.505-5.16-4.506-9.993-6.167-4.67-1.511-11-2.832-18.68-3.676-7.828-.83-17.82-1.157-29.829-1.157-11.994 0-22 .327-29.829 1.157-7.665.844-13.996 2.165-18.666 3.676C70.17 3.5 66.834 5.5 64.996 8.005 62.994 10.497 62 13.33 62 16.501v436.005c0 3.158.83 5.99 2.505 8.495 1.497 2.505 4.492 4.493 8.658 6.168 4.33 1.497 9.667 2.832 16.338 3.662 6.671.83 15.166 1.17 25.16 1.17 10.51 0 19.005-.34 25.84-1.17 6.834-.83 12.171-2.165 15.997-3.662 3.662-1.675 6.33-3.663 8.005-6.168 1.661-2.505 2.492-5.337 2.492-8.495v-50.333c24.002 25.99 48.005 45.323 72.007 58.325 24.002 13.002 48.999 19.496 75.002 19.496 17.999 0 34.16-1.825 48.495-5.664 14.336-3.662 26.998-9 38.339-15.997 11.164-6.998 20.83-15.33 28.999-24.996 8.168-9.844 14.99-20.667 20.49-32.675 13.001 14.01 25.84 26.003 38.338 36.01 12.498 9.993 24.996 18.325 37.168 24.656 12.171 6.344 24.329 11 36.664 14.01 12.171 3.158 24.506 4.656 37.33 4.656 28.836 0 53.342-4.834 73.179-14.663 19.822-9.667 35.833-22.995 47.99-39.836 12.336-16.665 21.008-36.324 26.168-58.829 5.173-22.504 7.842-46.166 7.842-71.326V16.5z"
         horiz-adv-x="813"
         unicode="m" /><glyph
         id="glyph1911"
         d="M478.006 16.5c0-3.171-1.007-6.003-3.009-8.495-1.824-2.505-5.16-4.506-9.666-6.167-4.67-1.511-11-2.832-18.992-3.676-8.006-.83-17.835-1.157-29.503-1.157-12.172 0-22.165.327-30.17 1.157-8.005.844-14.336 2.165-19.006 3.676-4.493 1.66-7.828 3.662-9.666 6.167-1.988 2.492-2.995 5.324-2.995 8.496v248.506c0 21.157-1.498 37.82-4.67 49.829-2.995 12.158-7.502 22.491-13.329 31-5.827 8.659-13.505 15.33-22.668 20.163-9.326 4.67-20 6.998-32.334 6.998-15.67 0-31.327-5.663-47.325-17.168-15.833-11.327-32.511-27.991-49.679-49.666V16.501c0-3.172-.994-6.004-2.995-8.495-1.838-2.505-5.16-4.506-9.993-6.167-4.67-1.512-11-2.832-18.68-3.676-7.828-.83-17.82-1.158-29.829-1.158-11.994 0-22 .327-29.829 1.158-7.665.844-13.996 2.164-18.666 3.676-4.833 1.66-8.168 3.662-10.006 6.167C62.994 10.497 62 13.329 62 16.501v436.005c0 3.159.83 5.99 2.505 8.496 1.497 2.505 4.492 4.493 8.658 6.167 4.33 1.498 9.667 2.832 16.338 3.663 6.671.83 15.166 1.17 25.16 1.17 10.51 0 19.005-.34 25.84-1.17 6.834-.83 12.171-2.165 15.997-3.663 3.662-1.674 6.33-3.662 8.005-6.167 1.661-2.505 2.492-5.337 2.492-8.496v-50.332c24.002 25.99 48.508 45.322 73.505 58.324 24.832 13.002 50.836 19.496 77.834 19.496 29.666 0 54.662-4.833 75.002-14.663 20.327-9.666 36.664-22.995 49.326-39.836 12.498-16.664 21.51-36.323 26.997-58.828 5.5-22.505 8.346-49.502 8.346-80.993V16.501z"
         horiz-adv-x="536"
         unicode="n" /><glyph
         id="glyph1913"
         d="M341.997 411.839c0-11.668-.327-21.334-.994-28.836-.667-7.501-1.674-13.342-2.832-17.508-1.334-4.166-3.172-7.161-5.173-8.822-2.165-1.675-4.833-2.342-8.169-2.342-2.491 0-5.5.504-8.822 1.675-3.172 1.157-6.835 2.328-11 3.662-4.003 1.334-8.51 2.505-13.343 3.662-4.996 1.171-10.333 1.675-16.16 1.675-6.835 0-13.67-1.334-20.504-4.166-6.834-2.845-13.995-7.012-21.334-13.002-7.338-5.84-15.003-13.669-22.995-23.335-8.005-9.83-16.5-21.838-25.677-36.174V16.5c0-3.172-.993-6.004-2.995-8.496-1.838-2.505-5.16-4.506-9.993-6.167-4.67-1.511-11-2.832-18.679-3.676-7.828-.83-17.821-1.157-29.83-1.157-11.994 0-22 .327-29.829 1.157-7.665.844-13.995 2.165-18.665 3.676C70.17 3.5 66.834 5.5 64.996 8.005c-2.001 2.492-2.995 5.324-2.995 8.496v436.005c0 3.159.83 5.99 2.505 8.495 1.498 2.505 4.493 4.493 8.659 6.168 4.33 1.497 9.666 2.832 16.337 3.662 6.671.83 15.167 1.17 25.16 1.17 10.51 0 19.006-.34 25.84-1.17 6.835-.83 12.172-2.165 15.997-3.662 3.663-1.675 6.331-3.663 8.006-6.168 1.66-2.505 2.491-5.336 2.491-8.495V398.17c11.34 16.324 22.164 29.666 32.171 40.163 10.17 10.497 19.837 19.006 28.836 25.173 9.162 6.154 18.325 10.497 27.501 12.825 9 2.505 18.162 3.663 27.324 3.663 4.166 0 8.836-.164 13.67-.654a130.26 130.26 0 0015.166-2.505c5.173-1.17 9.83-2.505 13.669-3.84 4.003-1.497 6.834-2.994 8.672-4.655 1.661-1.675 2.996-3.513 3.826-5.337.83-2.002 1.498-4.67 2.165-8.169.667-3.336 1.17-8.495 1.511-15.33.327-6.834.49-16.01.49-27.665z"
         horiz-adv-x="355"
         unicode="r" /></font><style
       id="style41-1"
       type="text/css">@font-face{font-family:&quot;Lato&quot;;font-variant:normal;font-style:normal;font-weight:700;src:url(#FontID0) format(svg)}.str8{stroke:#373435;stroke-width:34.27;stroke-miterlimit:2.61313;stroke-dasharray:34.267717 102.80315}.fil7{fill:none}.fil3,.fil4{fill-rule:nonzero}.fil4{fill:#fefefe}.fil3{fill:#373435}</style><font
       font-weight="700"
       font-style="normal"
       font-variant="normal"
       horiz-adv-x="710"
       id="FontID0-8"
       horiz-origin-x="0"
       horiz-origin-y="0"
       vert-origin-x="45"
       vert-origin-y="90"
       vert-adv-y="90"><font-face
         id="font-face2-7"
         font-family="Lato"><font-face-src><font-face-name
             name="Lato Bold" /></font-face-src></font-face><glyph
         id="glyph8-9"
         d="M73.003 0v722.993h249.499c47.338 0 87.831-4.489 121.335-13.498 33.504-8.993 60.996-21.833 82.493-38.489 21.497-16.672 37.175-36.838 47.178-60.5 9.987-23.676 14.988-50.335 14.988-80.007 0-16.993-2.5-33.168-7.502-48.67-5.001-15.5-12.664-29.992-23.164-43.49-10.5-13.498-23.837-25.841-39.996-36.838-16.175-10.997-35.508-20.327-57.838-28.005C559.336 351.166 609 297.495 609 212.5c0-30.667-5.835-59.009-17.506-84.994-11.654-26.002-28.662-48.348-50.993-67.168-22.33-18.836-49.839-33.68-82.509-44.34C425.338 5.339 388.002 0 346.003 0h-273zm134.496 317.004V105h136.5c25.008 0 46.008 2.998 62.84 8.993 16.832 6.012 30.33 14.01 40.493 24.014 10.163 9.987 17.505 21.657 21.994 34.994 4.504 13.338 6.668 27.493 6.668 42.497 0 15.662-2.5 29.833-7.502 42.337-4.985 12.504-12.824 23.164-23.485 31.997-10.676 8.833-24.334 15.501-41.006 20.166-16.671 4.665-36.838 7.006-60.499 7.006H207.499zm0 92.993H315c45.671 0 80.329 8.336 104.006 25.008 23.661 16.655 35.492 43.17 35.492 79.495 0 37.672-10.66 64.507-31.997 80.505-21.337 15.999-54.664 23.998-99.999 23.998H207.5V409.997z"
         horiz-adv-x="651"
         unicode="B" /><glyph
         id="glyph10-2"
         d="M212.004 420h31.5c12.664 0 23.164 1.827 31.5 5.338 8.336 3.495 15.502 8.993 21.497 16.656L496 694.507c8.336 10.66 17.169 18.162 26.338 22.33 9.17 4.168 20.663 6.156 34.658 6.156h115.997L429.506 422.501c-7.679-9.33-15.005-17.169-22.01-23.5-6.99-6.333-14.491-11.495-22.49-15.502 10.996-3.992 21-9.667 29.832-16.993 8.833-7.341 17.33-16.671 25.665-28.005L691.493.001H572.498C556.5 0 544.669 2.34 536.83 6.828c-7.823 4.505-14.492 10.997-19.83 19.67L312.5 293.503c-6.67 8.656-14.172 15.004-22.508 18.836-8.32 3.83-20.166 5.658-35.491 5.658h-42.497V0H77.508v724.003h134.496V420z"
         horiz-adv-x="698"
         unicode="K" /><glyph
         id="glyph12-0"
         d="M460.493 590.997c-3.655-7.326-7.823-12.504-12.664-15.502-4.825-2.997-10.66-4.488-17.33-4.488-6.668 0-14.17 2.661-22.506 7.823-8.32 5.178-18.163 10.836-29.496 17.169-11.334 6.332-24.495 12.167-39.66 17.329-15.165 5.177-33.167 7.678-53.83 7.678-18.676 0-34.835-2.18-48.669-6.669-13.834-4.504-25.504-10.836-35.01-18.835-9.49-8-16.656-17.506-21.321-28.663-4.681-11.173-7.006-23.5-7.006-36.838 0-16.832 4.826-31.003 14.332-42.337 9.506-11.333 21.994-21 37.671-28.999 15.662-8 33.488-15.165 53.494-21.497 20.006-6.332 40.51-13.16 61.333-20.343 20.84-6.989 41.167-15.325 61.173-24.83 19.99-9.49 37.832-21.498 53.494-35.99 15.661-14.507 28.342-32.333 37.832-53.173 9.506-21 14.17-46.504 14.17-76.497 0-32.67-5.498-63.177-16.671-91.663-11.157-28.502-27.492-53.333-48.99-74.51-21.512-21.16-47.835-37.832-78.838-49.999C330.998-2.004 295.507-7.999 255.494-7.999c-22.987 0-45.654 2.34-68.001 6.829-22.33 4.504-43.667 10.836-64.154 19.172-20.503 8.336-39.676 18.339-57.502 29.993-17.842 11.67-33.84 24.671-47.835 39.002l39.003 64.507c3.655 4.665 8.16 8.496 13.321 11.654C75.504 166.333 81.163 168 87.495 168c8.336 0 17.345-3.495 27.011-10.34 9.666-6.829 21.16-14.331 34.321-22.667 13.177-8.32 28.679-15.999 46.505-22.828 17.842-6.829 39.162-10.163 64.17-10.163 38.33 0 68.002 9.17 89.002 27.332s31.5 44.164 31.5 78.165c0 18.996-4.665 34.497-14.171 46.504-9.507 11.991-22.17 22.17-37.832 30.33-15.662 8.16-33.504 15.004-53.494 20.663a1792.658 1792.658 0 00-61.013 18.5c-20.663 6.668-40.99 14.667-60.996 23.997-20.006 9.346-37.832 21.513-53.494 36.502-15.677 15.004-28.165 33.84-37.671 56.33C51.827 462.834 47 490.502 47 523.493c0 26.338 5.339 52.003 15.839 77.01 10.5 24.992 25.825 47.163 45.991 66.495 20.167 19.333 44.838 34.835 74.173 46.505 29.336 11.67 62.824 17.505 100.495 17.505 42.674 0 81.997-6.669 118.001-20.182 36.005-13.322 66.671-32.157 92-56.332l-33.007-63.496z"
         horiz-adv-x="536"
         unicode="S" /><glyph
         id="glyph14-2"
         d="M582.501 724.003V613.008H364.999V.498H230.503v612.51H12.007v110.995h570.494z"
         horiz-adv-x="595"
         unicode="T" /><glyph
         id="glyph16-3"
         d="M467.995 0h-55.498c-11.67 0-20.823 1.827-27.492 5.338-6.669 3.495-11.67 10.5-15.005 21.16L359.004 63c-13.001-11.67-25.665-21.834-38.17-30.666-12.503-8.833-25.504-16.336-38.841-22.33C268.67 4.007 254.5-.497 239.496-3.496 224.507-6.493 207.836-8 189.496-8 167.84-8 147.833-5.003 129.495.833 111.172 6.668 95.494 15.34 82.333 27.171 69.172 38.825 58.832 53.333 51.506 70.838c-7.342 17.329-11.013 37.495-11.013 60.66 0 19.332 5.178 38.505 15.341 57.34 10.164 18.997 26.996 35.989 50.673 51.154 23.66 15.341 55.16 28.005 94.5 38.008 39.323 10.003 88.168 15.005 146.487 15.005v30.153c0 34.674-7.166 60.34-21.658 76.835C311.33 416.665 290.17 425 262.5 425c-20.006 0-36.662-2.34-50-7.005-13.337-4.665-24.83-9.827-34.673-15.662-9.827-5.835-18.997-11.173-27.332-15.838-8.336-4.665-17.49-6.99-27.493-6.99-8.336 0-15.501 2.165-21.497 6.493-6.011 4.328-10.836 9.666-14.507 15.998l-22.491 39.5c58.992 54.343 130.168 81.499 213.494 81.499 29.993 0 56.828-5.002 80.329-14.828 23.5-9.827 43.33-23.501 59.666-41.006 16.335-17.49 28.838-38.49 37.335-62.824 8.496-24.334 12.664-51.01 12.664-80.008V0zM228.002 76.995c12.664 0 24.334 1.17 34.995 3.51 10.676 2.325 20.84 5.835 30.33 10.5 9.505 4.665 18.675 10.5 27.508 17.33 8.833 6.828 17.665 14.827 26.659 24.157V218c-35.989 0-65.998-2.324-90.156-6.829-24.174-4.505-43.667-10.34-58.335-17.505-14.668-7.006-25.008-15.325-31.164-24.671-6.171-9.49-9.345-19.654-9.345-30.827 0-21.834 6.508-37.672 19.332-47.001 12.84-9.507 29.513-14.171 50.176-14.171z"
         horiz-adv-x="523"
         unicode="a" /><glyph
         id="glyph18-7"
         d="M67.504 0v742.999h123.5V449.993c20.326 21.673 43.33 39.002 68.995 51.843 25.665 12.824 55.674 19.156 89.995 19.156 28.006 0 53.67-5.819 76.835-17.329 23.164-11.494 43.17-28.165 60.002-50.16 16.832-22.01 29.833-49.341 39.002-81.675 9.17-32.333 13.674-69.492 13.674-111.492 0-38.505-5.178-73.997-15.501-106.667-10.34-32.67-25.008-60.996-44.18-85.17-19.157-23.998-42.321-42.657-69.493-56.17C383.162-1.17 352.671-8 319.007-8c-15.678 0-30.009 1.668-43.01 4.826-13 3.174-24.83 7.678-35.491 13.337-10.676 5.675-20.503 12.664-29.673 20.84a275.555 275.555 0 00-26.338 27.492l-5.498-34.498c-2.004-8.656-5.338-14.828-10.164-18.499C163.993 1.828 157.339 0 149.003 0H67.505zm239.993 425.001c-25.664 0-47.498-5.338-65.66-16.175-18.163-10.82-35.171-26.162-50.833-45.831v-229.99c13.994-17.345 29.336-29.336 45.831-36.165 16.495-6.845 34.337-10.34 53.67-10.34 18.66 0 35.492 3.495 50.496 10.5 15.005 7.006 27.83 17.666 38.33 31.997s18.499 32.51 24.173 54.344c5.66 21.833 8.496 47.498 8.496 77.155 0 30.009-2.34 55.497-7.165 76.337-4.841 20.84-11.83 37.672-20.84 50.672-8.993 13.001-19.83 22.491-32.654 28.487-12.84 6.011-27.508 9.009-43.844 9.009z"
         horiz-adv-x="569"
         unicode="b" /><glyph
         id="glyph20-5"
         d="M426.492 404.001c-3.655-4.665-7.166-8.336-10.66-10.997-3.495-2.677-8.673-4.008-15.325-4.008-6.333 0-12.504 2.004-18.5 5.836-6.011 3.83-13.177 8.175-21.513 13-8.32 4.842-18.162 9.17-29.656 13.001-11.51 3.831-25.841 5.659-42.834 5.659-21.673 0-40.67-3.831-57.004-11.654-16.335-7.84-29.833-19.173-40.67-33.84-10.836-14.492-18.996-32.334-24.334-53.158-5.322-20.68-8-44.34-8-70.502 0-27.332 2.998-51.666 8.834-73.003 5.835-21.337 14.17-39.163 25.167-53.67 10.997-14.492 24.335-25.505 39.997-32.991 15.678-7.502 33.343-11.173 53.013-11.173 19.653 0 35.667 2.34 47.819 7.165 12.167 4.842 22.346 10.164 30.666 15.999 8.336 5.835 15.678 11.173 21.834 15.998 6.171 4.842 13 7.342 20.679 7.342 9.987 0 17.49-4.007 22.49-11.67l35.508-45.334c-13.674-15.999-28.502-29.336-44.5-40.173-15.999-10.82-32.51-19.493-49.663-26.001-17.169-6.493-35.01-11.157-53.333-13.835-18.34-2.66-36.502-3.991-54.504-3.991-31.677 0-61.51 5.995-89.499 17.826-28.005 11.846-52.34 28.999-73.163 51.666-20.84 22.844-37.335 50.512-49.502 83.343-12.167 32.99-18.34 70.326-18.34 112.502 0 37.656 5.5 72.49 16.336 104.824 10.837 32.173 26.659 60.002 47.659 83.503 21 23.5 47.001 42 78.004 55.337 31.003 13.338 66.671 19.99 107.004 19.99 38.33 0 71.993-6.155 100.832-18.66 28.84-12.327 54.664-30.169 77.668-53.333l-32.51-44.997z"
         horiz-adv-x="477"
         unicode="c" /><glyph
         id="glyph22-9"
         d="M427.005 0c-15.998 0-26.498 7.326-31.5 22.17l-10.003 48.67c-10.676-11.847-21.834-22.667-33.504-32.173-11.67-9.667-24.158-17.826-37.671-24.832-13.498-7.005-27.99-12.327-43.491-16.175-15.502-3.83-32.334-5.658-50.336-5.658-28.005 0-53.67 5.835-76.995 17.505-23.34 11.654-43.346 28.663-60.178 50.833-16.832 22.154-29.833 49.502-38.986 82.156-9.17 32.67-13.835 70.006-13.835 112.005 0 37.993 5.162 73.34 15.502 105.994 10.323 32.67 25.152 61.012 44.484 85.01 19.35 23.998 42.513 42.834 69.509 56.331 26.995 13.498 57.325 20.167 91.005 20.167 28.663 0 53.157-4.665 73.5-13.834 20.327-9.33 38.49-21.674 54.488-37.175V743h123.499V0h-75.488zM262.5 89.995c25.665 0 47.498 5.339 65.5 15.839 18.003 10.5 34.995 25.328 50.994 44.66v226.512c-13.995 18.499-29.16 31.5-45.655 39.162-16.512 7.502-34.338 11.334-53.334 11.334-18.675 0-35.507-3.495-50.672-10.5-15.165-7.006-28.005-17.506-38.505-31.677-10.5-14.155-18.66-32.157-24.335-53.99-5.658-21.674-8.496-47.499-8.496-76.995 0-30.009 2.5-55.337 7.342-76.177 4.825-20.824 11.654-37.832 20.663-50.993 8.994-13.177 19.99-22.667 32.991-28.502 13.001-5.835 27.509-8.673 43.507-8.673z"
         horiz-adv-x="569"
         unicode="d" /><glyph
         id="glyph24-2"
         d="M278.001 520.992c32.334 0 62.166-5.162 89.338-15.486 27.156-10.5 50.496-25.504 70.166-45.51 19.67-19.83 34.994-44.325 45.991-73.164 10.997-28.999 16.496-62.006 16.496-99.164 0-9.33-.32-17.169-1.155-23.34-.833-6.156-2.34-10.998-4.504-14.492-2.164-3.495-5.162-5.996-8.833-7.503-3.67-1.506-8.336-2.34-13.995-2.34H154.501c3.671-52.324 17.826-90.653 42.497-115.163 24.671-24.495 57.342-36.822 97.995-36.822 20.006 0 37.335 2.324 51.843 6.99 14.491 4.664 27.155 9.666 37.992 15.34 10.837 5.66 20.343 10.821 28.502 15.502 8.176 4.488 15.999 6.829 23.661 6.829 5.002 0 9.346-1.01 13.001-2.998 3.671-2.004 6.845-4.841 9.506-8.512L495.503 76c-13.674-15.999-29-29.336-46.008-40.173-16.992-10.82-34.658-19.493-53.157-26.001-18.5-6.492-37.335-11.157-56.508-13.834C320.674-6.668 301.998-8 283.996-8c-35.668 0-68.835 5.995-99.501 17.826-30.667 11.847-57.325 29.336-79.993 52.5-22.667 23.18-40.509 51.843-53.51 86.004-13 34.337-19.493 73.836-19.493 119.01 0 34.995 5.66 67.826 16.993 98.829 11.333 30.827 27.668 57.662 48.845 80.505 21.16 22.828 47.001 40.99 77.491 54.328 30.506 13.337 64.844 19.99 103.172 19.99zm2.5-88.985c-36.004 0-64.17-10.18-84.496-30.507-20.343-20.326-33.344-49.165-39.002-86.5h231.994c0 15.998-2.165 31.163-6.493 45.334-4.344 14.171-10.997 26.499-20.006 37.159-8.993 10.676-20.327 19.172-34 25.344-13.659 6.156-29.657 9.17-47.996 9.17z"
         horiz-adv-x="534"
         unicode="e" /><glyph
         id="glyph26-2"
         d="M243.504 522.002c21.994 0 42.657-2.34 61.99-6.829 19.333-4.505 36.998-11.173 53.013-19.846h147.497v-47.162c0-7.839-2.004-13.994-6.012-18.499-3.991-4.504-10.82-7.502-20.487-9.17l-46.007-8.832c3.334-8.496 5.995-17.666 7.839-27.172 1.827-9.49 2.66-19.653 2.66-30.153 0-25.168-5-47.835-15.164-68.002-10.163-20.342-24.158-37.671-42-51.842-17.826-14.155-39.002-25.168-63.497-32.83-24.495-7.824-51.17-11.671-79.832-11.671-19.333 0-38.169 1.843-56.508 5.498C170.998 185.666 163 174.67 163 162.502c0-10.5 4.841-18.163 14.331-23.004 9.506-5.002 22.01-8.496 37.511-10.5 15.486-2.004 32.991-2.998 52.66-2.998 19.67 0 39.837-.834 60.5-2.5a476.401 476.401 0 0060.5-8.834c19.669-4.167 37.334-10.66 52.836-19.83 15.5-9.007 27.988-21.176 37.494-36.836 9.506-15.502 14.171-35.492 14.171-60.003 0-22.667-5.498-44.66-16.672-66.158C465.174-89.498 449-108.67 427.84-125.326c-21.176-16.672-47.178-30.17-77.844-40.333-30.666-10.18-65.661-15.341-105-15.341-39.002 0-72.827 3.83-101.49 11.333-28.678 7.502-52.339 17.505-71.175 29.993-18.835 12.504-32.99 26.835-42.336 43.17C20.665-80.168 16-63.16 16-45.494c0 23.997 7.342 44.324 21.994 60.66 14.667 16.334 35.009 29.334 61.011 39C86.341 61.173 76.162 70.502 68.5 82.173c-7.662 11.654-11.494 26.835-11.494 45.655 0 7.678 1.33 15.501 3.992 23.837 2.677 8.176 6.845 16.175 12.343 24.174 5.499 8 12.328 15.662 20.664 22.827 8.336 7.166 18.162 13.674 29.496 19.333-26.002 13.995-46.328 32.67-61.173 55.995-14.828 23.34-22.33 50.672-22.33 82.012 0 25.328 5.178 48.332 15.341 68.835 10.164 20.487 24.334 37.992 42.497 52.5 18.163 14.492 39.66 25.489 64.507 33.151 24.831 7.679 51.827 11.51 81.162 11.51zm135.49-543.835c0 10.34-2.998 18.66-8.993 25.168-5.996 6.492-14.171 11.494-24.495 15.165-10.34 3.494-22.346 6.172-36.165 7.999-13.834 1.667-28.502 2.5-44.003 2.5h-48.012c-16.495 0-32.494 1.828-47.819 5.5-14.01-7.84-25.168-16.833-33.68-27.333-8.496-10.66-12.824-22.667-12.824-36.501 0-8.993 2.324-17.506 6.829-25.328 4.504-7.84 11.67-14.508 21.497-20.343 9.842-5.659 22.506-9.987 38.168-13.161 15.678-3.158 34.835-4.825 57.502-4.825 23.004 0 42.833 1.827 59.505 5.322 16.656 3.67 30.49 8.672 41.327 15.004 10.836 6.172 18.675 13.835 23.677 22.507 4.985 8.657 7.486 18.163 7.486 28.326zm-135.49 290.826c15.325 0 28.663 2.004 39.996 6.172 11.334 4.168 20.84 10.003 28.326 17.329 7.502 7.181 13.177 16.014 17.008 26.338 3.832 10.34 5.66 21.673 5.66 34 0 25.168-7.487 45.175-22.668 60.003-15.165 14.828-37.992 22.17-68.322 22.17-30.33 0-52.997-7.342-68.178-22.17C160.161 398.007 152.5 378 152.5 352.833c0-11.991 2.003-23.165 5.835-33.504 3.831-10.324 9.506-19.157 16.992-26.66 7.502-7.501 17.009-13.336 28.502-17.504 11.51-4.168 24.671-6.172 39.676-6.172z"
         horiz-adv-x="517"
         unicode="g" /><glyph
         id="glyph28-8"
         d="M197.496 512.993V0H73.997v512.993h123.499zm18.5 149.837c0-10.837-2.165-20.824-6.493-30.17-4.328-9.33-10.003-17.489-17.169-24.654-7.165-7.006-15.662-12.504-25.328-16.672-9.666-4.168-20.006-6.332-31.003-6.332-10.676 0-20.663 2.164-30.17 6.332-9.506 4.168-17.825 9.666-24.83 16.672-7.006 7.165-12.505 15.325-16.672 24.655-4.168 9.345-6.333 19.332-6.333 30.169 0 10.997 2.165 21.337 6.333 31.003 4.167 9.666 9.666 18.002 16.671 25.168 7.006 7.005 15.325 12.504 24.832 16.672 9.506 4.168 19.493 6.332 30.169 6.332 10.997 0 21.337-2.164 31.003-6.332 9.666-4.168 18.163-9.667 25.328-16.672 7.166-7.166 12.84-15.502 17.169-25.168 4.328-9.666 6.492-20.006 6.492-31.003z"
         horiz-adv-x="270"
         unicode="i" /><glyph
         id="glyph30-9"
         d="M191.004 742.999V317.998h23.004c8.32 0 14.828 1.17 19.493 3.495 4.665 2.34 9.666 6.668 15.004 13l127.491 157.003c5.675 6.67 11.67 12.007 18.003 15.839 6.332 3.83 14.668 5.658 25.007 5.658h113L372.5 322.503a216.647 216.647 0 00-17.505-19.173c-5.995-5.835-12.504-10.997-19.493-15.325a92.61 92.61 0 0018.5-17.506c5.337-6.668 10.66-13.834 15.998-21.496L540.999 0H429.507c-9.667 0-17.842 1.667-24.511 5.001-6.669 3.334-12.664 8.993-18.002 16.992L256.506 216.492c-5.002 7.68-10.003 12.68-15.005 15.005-5.001 2.34-12.504 3.51-22.507 3.51h-27.99V.002H67.507V743h123.499z"
         horiz-adv-x="551"
         unicode="k" /><glyph
         id="glyph32-7"
         d="M197.496 742.999V0H73.997v742.999h123.499z"
         horiz-adv-x="270"
         unicode="l" /><glyph
         id="glyph34-3"
         d="M65.998 0v512.993H141.5c15.999 0 26.499-7.486 31.5-22.49l8.497-40.51a281.191 281.191 0 0032.83 29 229.048 229.048 0 0036.502 22.506c12.84 6.332 26.498 11.174 41.166 14.508 14.668 3.334 30.666 4.985 48.011 4.985 27.99 0 52.821-4.665 74.494-14.155 21.674-9.506 39.836-22.843 54.328-39.996 14.507-17.169 25.504-37.672 33.006-61.509 7.503-23.837 11.158-50.16 11.158-78.838V0h-123.5v326.494c0 31.34-7.165 55.674-21.657 72.843C353.33 416.505 331.496 425 302.496 425c-21.337 0-41.327-4.84-60.002-14.507-18.66-9.667-36.325-22.828-52.997-39.5V.002H65.998z"
         horiz-adv-x="568"
         unicode="n" /><glyph
         id="glyph36-6"
         d="M65.998 0v512.993h72.506c12.664 0 21.497-2.324 26.498-6.99 5.002-4.664 8.336-12.663 10.003-23.997L182.508 420c18.322 31.836 39.82 57.004 64.49 75.327 24.671 18.5 52.34 27.669 83.006 27.669 25.329 0 46.329-5.995 63-18.002l-15.998-92.496c-1.01-5.996-3.174-10.164-6.509-12.665-3.334-2.5-7.822-3.83-13.497-3.83-5.002 0-11.83 1.17-20.503 3.494-8.657 2.34-20.167 3.51-34.498 3.51-25.665 0-47.659-7.005-65.998-21.176-18.339-14.17-33.84-34.994-46.504-62.326V0h-123.5z"
         horiz-adv-x="408"
         unicode="r" /><glyph
         id="glyph38-1"
         d="M370.497 412.994c-3.334-5.322-6.829-8.993-10.5-11.157-3.671-2.164-8.336-3.335-13.995-3.335-5.995 0-12.343 1.668-19.172 5.002a1261.325 1261.325 0 01-23.837 11.334c-8.994 4.168-19.157 7.822-30.667 11.157-11.494 3.334-25.152 5.001-40.83 5.001-24.334 0-43.49-5.162-57.501-15.501-13.995-10.324-21-23.822-21-40.493 0-10.997 3.67-20.167 10.836-27.669 7.166-7.502 16.672-14.171 28.503-19.83 11.83-5.675 25.168-10.676 40.172-15.165 14.989-4.504 30.33-9.506 45.992-14.844 15.662-5.322 31.003-11.334 46.008-18.163 14.988-6.829 28.486-15.501 40.332-26.001 11.83-10.5 21.32-23.164 28.503-37.832C400.506 200.83 404 183.164 404 162.5c0-24.671-4.505-47.338-13.498-68.162-9.009-20.84-22.17-38.842-39.499-54.007-17.345-15.165-38.666-26.995-64.17-35.491C261.329-3.671 231.994-8 199.003-8c-17.666 0-34.835 1.667-51.667 4.825C130.504 0 114.33 4.328 98.828 10.003 83.326 15.66 68.995 22.33 55.834 29.993 42.673 37.67 31.003 46.007 21 55l28.502 47.338c3.67 5.66 8 9.988 13 13.162 5.002 2.997 11.334 4.504 18.997 4.504 7.662 0 15.005-2.164 21.834-6.508 6.829-4.328 14.667-8.993 23.66-13.995 9.01-5.001 19.67-9.666 31.837-13.994 12.167-4.345 27.509-6.509 46.168-6.509 14.668 0 27.332 1.667 37.832 5.162 10.5 3.51 19.173 8.176 26.002 13.834 6.829 5.675 11.83 12.168 15.004 19.67 3.158 7.502 4.665 15.341 4.665 23.34 0 11.991-3.495 21.657-10.66 29.336-7.182 7.663-16.672 14.331-28.503 19.99-11.846 5.675-25.344 10.837-40.509 15.341-15.165 4.489-30.666 9.33-46.488 14.668-15.838 5.322-31.34 11.494-46.505 18.66-15.165 7.165-28.662 16.335-40.509 27.332-11.83 10.997-21.32 24.494-28.486 40.333-7.182 15.998-10.837 35.33-10.837 57.998 0 21 4.168 41.006 12.488 60.002 8.336 18.996 20.68 35.508 36.838 49.663 16.175 14.17 36.342 25.504 60.5 34 24.174 8.513 52.003 12.665 83.663 12.665 35.347 0 67.504-5.82 96.504-17.49 28.999-11.67 53.173-26.995 72.506-46.007l-28.006-44.501z"
         horiz-adv-x="436"
         unicode="s" /></font><font
       id="FontID0-3"
       horiz-adv-x="605"
       font-variant="normal"
       style="fill-rule:nonzero"
       font-style="normal"
       font-weight="700">
	<font-face
   font-family="Calibri"
   id="font-face996">
		<font-face-src>
			<font-face-name
   name="Calibri Bold" />
		</font-face-src>
	</font-face>
   <missing-glyph
   id="missing-glyph1000"><path
     d="M0 0z"
     id="path998" /></missing-glyph>
   <glyph
   unicode="B"
   horiz-adv-x="560"
   d="M525.997 189.664c0,-22.4912 -3.15857,-42.8313 -9.32595,-61.17 -6.16738,-18.1618 -14.6765,-34.3222 -25.5,-48.3315 -11.0005,-13.9957 -24.0024,-25.9901 -39.0056,-36.1602 -15.1666,-10.17 -31.8307,-18.3388 -49.9925,-24.9963 -18.1754,-6.50774 -37.6714,-11.3409 -58.3382,-14.3361 -20.6668,-3.17218 -43.6618,-4.66978 -68.9984,-4.66978l-167.84 0c-10.6602,0 -19.6594,3.17218 -26.9976,9.50293 -7.33823,6.33075 -11.0005,16.6642 -11.0005,31.0003l0 550.993c0,14.3361 3.66231,24.6695 11.0005,31.0003 7.33823,6.33075 16.3374,9.50293 26.9976,9.50293l158.337 0c38.6652,0 71.3401,-3.33556 98.1607,-9.82968 26.8342,-6.50774 49.339,-16.3374 67.6778,-29.5027 18.4885,-13.1652 32.4979,-29.8294 42.1642,-50.0061 9.82968,-20.1631 14.6628,-43.8251 14.6628,-71.1631 0,-15.3299 -2.00133,-29.666 -5.82701,-43.158 -3.83929,-13.5056 -9.66631,-25.8404 -17.0045,-36.8409 -7.5016,-11.1639 -16.6642,-20.8302 -27.6647,-29.3257 -10.8372,-8.50907 -23.1719,-15.3436 -37.1676,-20.5035 17.835,-3.33556 34.4992,-8.9992 49.6658,-17.1679 15.1666,-8.16871 28.3318,-18.6655 39.4957,-31.504 11.3409,-12.8249 20.1767,-27.9915 26.6708,-45.1594 6.49413,-17.3449 9.82968,-36.6775 9.82968,-58.1748zm-166.002 266.341c0,12.6615 -2.00133,23.9888 -5.82701,34.1588 -3.83929,10.0067 -9.66631,18.5021 -17.4947,25.1732 -7.84196,6.6575 -17.6716,11.6676 -29.5027,15.3299 -11.831,3.49893 -27.6647,5.33689 -47.5011,5.33689l-64.669 0 0 -164 71.5035 0c18.5021,0 33.3283,2.16471 44.3289,6.6575 11.0005,4.34303 20.1631,10.3334 27.5013,18.012 7.33823,7.66497 12.6615,16.6642 16.3374,26.8206 3.49893,10.3334 5.32328,21.0072 5.32328,32.5115zm33.0016 -271.011c0,14.6765 -2.49146,27.8417 -7.32461,39.5093 -4.83315,11.4907 -12.008,21.157 -21.5109,28.9989 -9.32595,7.82835 -21.334,13.8324 -35.9968,18.1618 -14.6628,4.16604 -33.6687,6.33075 -57.1674,6.33075l-75.9962 0 0 -179.998 92.6604 0c17.835,0 32.8382,1.83796 45.173,5.66364 12.1714,3.67592 22.6682,9.33956 31.6674,16.6778 8.83582,7.32461 15.8337,16.3238 20.9936,27.3243 5.01014,10.8372 7.5016,23.3353 7.5016,37.331z"
   id="glyph1002" />
   <glyph
   unicode="T"
   horiz-adv-x="495"
   d="M489.006 579.339c0,-9.50293 -0.340363,-17.5083 -1.17085,-24.3428 -0.830486,-6.6575 -2.00133,-11.9944 -3.66231,-15.9971 -1.67459,-4.16604 -3.67592,-7.16124 -6.16738,-8.9992 -2.3417,-2.00133 -5.17352,-2.99519 -8.00534,-2.99519l-157.996 0 0 -509.51c0,-3.15857 -1.00747,-6.16738 -3.17218,-8.82221 -2.16471,-2.50507 -5.66364,-4.66978 -10.4968,-6.34437 -4.83315,-1.4976 -11.5043,-2.83182 -19.8364,-3.82568 -8.33209,-1.00747 -18.6655,-1.4976 -31.0003,-1.4976 -12.3348,0 -22.6682,0.490123 -31.0003,1.4976 -8.33209,0.99386 -15.0032,2.32808 -19.8364,3.82568 -4.83315,1.67459 -8.33209,3.83929 -10.4968,6.34437 -2.16471,2.65483 -3.15857,5.66364 -3.15857,8.82221l0 509.51 -158.01 0c-3.15857,0 -5.99039,0.99386 -8.33209,2.99519 -2.16471,1.83796 -4.16604,4.83315 -5.82701,8.9992 -1.4976,4.00267 -2.83182,9.33956 -3.67592,15.9971 -0.830486,6.83449 -1.15723,14.8398 -1.15723,24.3428 0,9.66631 0.326748,17.9984 1.15723,24.8329 0.8441,6.83449 2.17832,12.3348 3.67592,16.3238 1.66097,4.16604 3.66231,7.01148 5.82701,8.83582 2.3417,1.83796 5.17352,2.66845 8.33209,2.66845l445.004 0c2.83182,0 5.50027,-0.830486 8.00534,-2.66845 2.49146,-1.82435 4.49279,-4.66978 6.16738,-8.83582 1.66097,-3.98905 2.83182,-9.48932 3.66231,-16.3238 0.830486,-6.83449 1.17085,-15.1666 1.17085,-24.8329z"
   id="glyph1004" />
   <glyph
   unicode="a"
   horiz-adv-x="493"
   d="M432.996 15.0032c0,-4.50641 -1.66097,-8.00534 -4.83315,-10.6738 -3.33556,-2.66845 -8.49546,-4.49279 -15.4933,-5.66364 -6.99786,-1.17085 -17.3313,-1.66097 -31.1636,-1.66097 -14.6765,0 -25.3366,0.490123 -32.0077,1.66097 -6.67111,1.17085 -11.5043,2.99519 -14.1591,5.66364 -2.84543,2.66845 -4.16604,6.16738 -4.16604,10.6738l0 34.6626c-18.012,-19.1692 -38.3385,-33.9955 -61.3334,-44.6692 -22.8452,-10.6602 -48.3452,-15.9971 -76.3366,-15.9971 -23.0085,0 -44.3425,2.99519 -63.6751,8.9992 -19.3326,6.004 -35.9968,15.0032 -50.1559,26.8342 -14.1727,11.9944 -25.1732,26.6708 -33.0016,44.1655 -7.84196,17.6716 -11.6676,38.1615 -11.6676,61.4968 0,25.5 4.99653,47.5011 14.8262,66.1666 10.0067,18.8425 24.8329,34.1724 44.5059,46.5072 19.6594,12.1578 44.0021,21.1706 73.3278,26.9976 29.1759,5.82701 63.1714,8.83582 101.837,8.83582l42.5045 0 0 26.3305c0,13.669 -1.33422,25.6634 -4.16604,35.9968 -2.66845,10.17 -7.33823,18.8425 -13.669,25.677 -6.33075,6.82087 -14.6628,11.831 -25.3366,15.1666 -10.4968,3.15857 -23.662,4.83315 -39.169,4.83315 -20.4899,0 -38.8286,-2.3417 -54.8257,-6.83449 -16.174,-4.50641 -30.3331,-9.66631 -42.6679,-15.1666 -12.3348,-5.50027 -22.6682,-10.6738 -31.0003,-15.1666 -8.33209,-4.50641 -15.0032,-6.83449 -20.1631,-6.83449 -3.67592,0 -6.83449,1.15723 -9.50293,3.33556 -2.83182,2.32808 -5.17352,5.66364 -6.83449,9.82968 -1.83796,4.16604 -3.17218,9.50293 -4.16604,15.6703 -1.00747,6.15376 -1.4976,12.9883 -1.4976,20.3265 0,10.17 0.830486,18.1618 2.49146,24.0024 1.4976,5.82701 4.66978,11.0005 9.17619,15.8337 4.65617,4.66978 12.4981,9.82968 23.9888,15.4933 11.3409,5.67725 24.6695,11.0005 39.9995,15.8337 15.3436,5.01014 32.0077,8.9992 50.0061,12.008 18.1618,3.15857 36.8273,4.65617 55.9965,4.65617 34.1724,0 63.3347,-3.32194 87.6639,-9.99306 24.1658,-6.67111 44.1655,-17.0045 59.6724,-30.8369 15.6703,-13.8324 27.161,-31.6674 34.3358,-53.4914 7.16124,-21.6743 10.6602,-47.678 10.6602,-77.5075l0 -293.161zm-120.992 186.995l-46.8339 0c-19.8364,0 -36.6639,-1.4976 -50.6732,-4.32942 -13.9957,-3.00881 -25.3366,-7.33823 -34.1588,-13.3422 -8.83582,-5.82701 -15.1666,-12.8249 -19.1692,-21.157 -4.16604,-8.33209 -6.16738,-17.835 -6.16738,-28.5088 0,-18.3251 5.82701,-32.6612 17.3313,-42.9946 11.5043,-10.4968 27.5013,-15.6703 48.0048,-15.6703 17.1679,0 33.0016,4.34303 47.5011,13.1652 14.4995,8.83582 29.1623,21.6743 44.1655,38.6652l0 74.1719z"
   id="glyph1006" />
   <glyph
   unicode="d"
   horiz-adv-x="536"
   d="M474.997 16.5008c0,-3.49893 -0.830486,-6.49413 -2.49146,-8.9992 -1.51121,-2.50507 -4.34303,-4.50641 -8.16871,-6.16738 -4.00267,-1.4976 -9.33956,-2.66845 -15.9971,-3.33556 -6.67111,-0.667111 -14.8398,-0.99386 -24.5061,-0.99386 -10.4968,0 -19.0059,0.326748 -25.5,0.99386 -6.49413,0.667111 -11.6676,1.83796 -15.8337,3.33556 -4.00267,1.66097 -6.99786,3.82568 -8.67245,6.16738 -1.82435,2.50507 -2.83182,5.50027 -2.83182,9.16257l0 48.5085c-22.3278,-24.1794 -45.9898,-42.8449 -70.496,-56.1735 -24.6695,-13.3286 -51.8305,-19.9997 -81.8369,-19.9997 -33.165,0 -61.3334,6.49413 -84.165,19.3326 -22.9949,12.8385 -41.6604,30.1698 -56.1599,52.0075 -14.4995,21.6607 -25.0099,47.1607 -31.504,76.323 -6.49413,29.1759 -9.82968,59.8358 -9.82968,92.0069 0,38.6652 4.16604,73.4912 12.4981,104.491 8.33209,30.8369 20.3265,57.1674 36.3371,79.0051 15.9971,21.8377 35.8334,38.5019 59.6588,50.3329 23.662,11.6676 51,17.4947 82.0002,17.4947 24.3291,0 46.5072,-4.99653 66.3299,-14.8262 19.9997,-10.0067 39.6727,-24.5061 59.1687,-43.6618l0 235.49c0,3.33556 0.830486,6.16738 2.66845,8.83582 1.83796,2.50507 4.99653,4.83315 9.82968,6.50774 4.66978,1.82435 11.0005,3.15857 18.6655,4.16604 7.84196,0.99386 17.835,1.4976 29.843,1.4976 11.9944,0 22.0011,-0.503737 29.8294,-1.4976 7.66497,-1.00747 13.9957,-2.3417 18.5021,-4.16604 4.49279,-1.67459 7.82835,-4.00267 9.66631,-6.50774 2.00133,-2.66845 2.99519,-5.50027 2.99519,-8.83582l0 -640.495zm-122 291.16c-17.4947,22.1781 -34.4992,39.0056 -50.4962,50.8366 -16.174,11.6676 -33.0016,17.5083 -50.6732,17.5083 -15.8337,0 -29.666,-4.00267 -41.1567,-12.008 -11.6676,-7.99172 -20.8438,-18.5021 -27.8417,-31.8307 -6.99786,-13.5056 -12.3348,-28.3318 -15.6567,-44.6692 -3.51255,-16.5008 -5.17352,-33.3283 -5.17352,-50.4962 0,-18.3388 1.4976,-35.9968 4.32942,-53.1647 3.00881,-17.3313 7.84196,-32.6748 14.4995,-46.1668 6.67111,-13.5056 15.5069,-24.3428 26.6708,-32.4979 11.0005,-8.16871 24.9963,-12.1714 42.0008,-12.1714 8.33209,0 16.6642,1.17085 24.6695,3.66231 7.99172,2.50507 15.9971,6.33075 24.3291,12.008 8.33209,5.50027 16.8412,12.6615 25.6634,21.6607 8.83582,8.9992 18.5021,19.8364 28.8356,32.8382l0 144.491z"
   id="glyph1008" />
   <glyph
   unicode="e"
   horiz-adv-x="503"
   d="M463.996 246.995c0,-14.9896 -3.33556,-25.9901 -9.99306,-33.165 -6.67111,-7.16124 -15.8337,-10.8235 -27.6647,-10.8235l-265.333 0c0,-18.5021 2.16471,-35.1663 6.6575,-50.3329 4.34303,-15.0032 11.3409,-27.8417 20.8438,-38.3385 9.66631,-10.4968 21.9874,-18.5021 37.154,-24.0024 15.1666,-5.50027 33.1786,-8.33209 54.3355,-8.33209 21.4973,0 40.3398,1.4976 56.6772,4.66978 16.1604,3.15857 30.3331,6.49413 42.1642,10.3334 11.831,3.82568 21.6607,7.16124 29.489,10.3334 7.84196,3.15857 14.1727,4.66978 19.0059,4.66978 2.99519,0 5.50027,-0.503737 7.33823,-1.67459 2.00133,-1.17085 3.66231,-3.17218 4.99653,-6.16738 1.17085,-2.83182 2.16471,-6.99786 2.66845,-12.3348 0.503737,-5.32328 0.667111,-12.1578 0.667111,-20.1631 0,-7.16124 -0.163374,-13.3286 -0.503737,-18.3388 -0.326748,-4.99653 -0.830486,-9.32595 -1.4976,-12.8249 -0.667111,-3.67592 -1.4976,-6.67111 -2.83182,-8.9992 -1.33422,-2.50507 -3.00881,-4.83315 -5.17352,-7.17485 -2.16471,-2.16471 -7.82835,-5.32328 -17.3313,-9.32595 -9.50293,-4.00267 -21.4973,-7.84196 -36.1602,-11.6676 -14.6765,-3.83929 -31.3406,-7.17485 -50.1695,-10.0067 -18.8289,-2.83182 -39.0056,-4.32942 -60.5029,-4.32942 -38.8286,0 -72.6607,4.83315 -101.837,14.6628 -28.9989,9.66631 -53.3281,24.5061 -73.001,44.3425 -19.496,19.8227 -33.9955,44.996 -43.6618,75.1658 -9.50293,30.3331 -14.3361,65.8262 -14.3361,106.493 0,38.6652 4.99653,73.5048 15.1666,104.668 10.0067,31.0003 24.6695,57.3307 44.0021,79.0051 19.1692,21.6607 42.5045,38.1615 70.0059,49.5024 27.6647,11.4907 58.665,17.1543 93.1642,17.1543 36.5005,0 67.6642,-5.32328 93.5045,-16.1604 25.9901,-10.6602 47.1607,-25.6634 63.8249,-44.6692 16.5008,-18.9923 28.8356,-41.6604 36.6639,-67.6642 7.84196,-26.0037 11.6676,-54.3355 11.6676,-84.9954l0 -19.5096zm-118.991 35.0029c0.99386,34.4992 -6.004,61.6738 -20.8438,81.3331 -14.8262,19.8364 -37.6578,29.666 -68.658,29.666 -15.6703,0 -29.3393,-2.99519 -40.8436,-8.83582 -11.654,-5.82701 -21.3203,-13.6554 -28.9989,-23.662 -7.66497,-9.99306 -13.492,-21.6607 -17.4947,-35.1663 -4.16604,-13.669 -6.49413,-28.0051 -7.16124,-43.335l184 0z"
   id="glyph1010" />
   <glyph
   unicode="i"
   horiz-adv-x="245"
   d="M184.994 16.5008c0,-3.17218 -0.99386,-6.004 -2.99519,-8.49546 -1.83796,-2.50507 -5.1599,-4.50641 -9.99306,-6.16738 -4.66978,-1.51121 -11.0005,-2.83182 -18.6791,-3.67592 -7.82835,-0.830486 -17.8214,-1.15723 -29.8294,-1.15723 -11.9944,0 -22.0011,0.326748 -29.8294,1.15723 -7.66497,0.8441 -13.9957,2.16471 -18.6655,3.67592 -4.83315,1.66097 -8.16871,3.66231 -10.0067,6.16738 -2.00133,2.49146 -2.99519,5.32328 -2.99519,8.49546l0 434.997c0,3.17218 0.99386,6.004 2.99519,8.49546 1.83796,2.50507 5.17352,4.66978 10.0067,6.34437 4.66978,1.82435 11.0005,3.15857 18.6655,4.16604 7.82835,0.99386 17.835,1.4976 29.8294,1.4976 12.008,0 22.0011,-0.503737 29.8294,-1.4976 7.67859,-1.00747 14.0093,-2.3417 18.6791,-4.16604 4.83315,-1.67459 8.1551,-3.83929 9.99306,-6.34437 2.00133,-2.49146 2.99519,-5.32328 2.99519,-8.49546l0 -434.997zm10.0067 583.995c0,-24.8329 -4.99653,-41.8238 -15.1666,-51.3267 -10.17,-9.50293 -28.8356,-14.1727 -56.3369,-14.1727 -27.6647,0 -46.4936,4.50641 -55.9965,13.669 -9.66631,9.16257 -14.4995,25.6634 -14.4995,49.339 0,24.8329 4.99653,42.0008 15.0032,51.6671 9.82968,9.48932 28.6586,14.3225 56.5003,14.3225 27.3243,0 45.9898,-4.65617 55.8331,-13.9957 9.82968,-9.16257 14.6628,-25.6634 14.6628,-49.5024z"
   id="glyph1012" />
   <glyph
   unicode="j"
   horiz-adv-x="255"
   d="M193.993 2.00133c0,-34.1724 -2.99519,-61.8371 -8.82221,-83.0077 -5.84063,-21.157 -14.6765,-38.8286 -26.5075,-53.3281 -11.9944,-14.4995 -26.8342,-25.3366 -44.8326,-32.6612 -17.835,-7.33823 -38.8286,-11.0005 -62.9944,-11.0005 -13.3422,0 -24.6695,0.830486 -34.1724,2.66845 -9.50293,1.82435 -16.3374,3.66231 -20.5035,5.66364 -4.16604,2.00133 -7.16124,4.49279 -8.82221,7.32461 -1.51121,3.00881 -2.66845,6.34437 -3.33556,10.17 -0.667111,3.67592 -1.17085,8.00534 -1.4976,12.6751 -0.340363,4.65617 -0.503737,10.8235 -0.503737,18.3251 0,9.16257 0.163374,16.8412 0.667111,22.8315 0.503737,6.004 1.4976,10.8372 2.66845,14.4995 1.33422,3.67592 2.83182,6.16738 4.49279,7.84196 1.4976,1.66097 3.67592,2.49146 6.33075,2.49146 1.51121,0 4.83315,-0.490123 9.8433,-1.33422 5.1599,-0.830486 10.4968,-1.15723 16.3238,-1.15723 8.50907,0 15.8337,1.33422 22.0011,3.82568 6.004,2.66845 11.1775,6.67111 15.0032,12.3348 3.83929,5.66364 6.83449,13.0019 8.67245,21.8377 2.00133,8.83582 2.99519,22.9949 2.99519,42.3275l0 447.169c0,3.17218 0.99386,6.004 2.99519,8.49546 1.83796,2.50507 5.17352,4.66978 9.66631,6.34437 4.66978,1.82435 10.8372,3.15857 18.6655,4.16604 7.84196,0.99386 17.835,1.4976 30.0064,1.4976 11.9944,0 22.0011,-0.503737 29.8294,-1.4976 7.84196,-1.00747 14.1727,-2.3417 18.8425,-4.16604 4.83315,-1.67459 8.1551,-3.83929 9.99306,-6.34437 2.00133,-2.49146 2.99519,-5.32328 2.99519,-8.49546l0 -449.497zm9.01281 598.494c0,-24.8329 -5.01014,-41.8238 -15.0032,-51.3267 -9.82968,-9.50293 -28.6722,-14.1727 -56.5003,-14.1727 -27.338,0 -46.0035,4.50641 -55.8331,13.669 -9.82968,9.16257 -14.6628,25.6634 -14.6628,49.339 0,24.8329 4.99653,42.0008 15.1666,51.6671 10.1564,9.48932 28.8219,14.3225 56.3233,14.3225 27.6647,0 46.5072,-4.65617 56.0101,-13.9957 9.66631,-9.16257 14.4995,-25.6634 14.4995,-49.5024z"
   id="glyph1014" />
   <glyph
   unicode="m"
   horiz-adv-x="813"
   d="M755.007 16.5008c0,-3.17218 -1.00747,-6.004 -3.00881,-8.49546 -1.83796,-2.50507 -5.1599,-4.50641 -9.66631,-6.16738 -4.66978,-1.51121 -10.8372,-2.83182 -18.6655,-3.67592 -7.82835,-0.830486 -17.835,-1.15723 -29.8294,-1.15723 -12.4981,0 -22.6682,0.326748 -30.5101,1.15723 -7.82835,0.8441 -14.1591,2.16471 -18.8289,3.67592 -4.66978,1.66097 -7.99172,3.66231 -9.82968,6.16738 -1.83796,2.49146 -2.66845,5.32328 -2.66845,8.49546l0 258.335c0,14.6628 -1.33422,27.9915 -4.16604,39.9995 -2.66845,12.1578 -6.99786,22.4912 -12.6615,31.0003 -5.67725,8.65883 -12.8385,15.3299 -21.334,20.1631 -8.67245,4.66978 -18.8425,6.99786 -30.8369,6.99786 -14.6628,0 -29.5027,-5.66364 -44.3289,-17.1679 -15.0032,-11.3273 -31.1772,-27.9915 -48.6719,-49.6658l0 -289.662c0,-3.17218 -0.99386,-6.004 -2.99519,-8.49546 -1.83796,-2.50507 -5.17352,-4.50641 -10.0067,-6.16738 -4.66978,-1.51121 -11.0005,-2.83182 -18.8289,-3.67592 -7.84196,-0.830486 -17.6716,-1.15723 -29.3393,-1.15723 -12.1578,0 -22.1644,0.326748 -29.9928,1.15723 -7.84196,0.8441 -14.1727,2.16471 -18.8425,3.67592 -4.83315,1.66097 -8.1551,3.66231 -9.99306,6.16738 -2.00133,2.49146 -3.00881,5.32328 -3.00881,8.49546l0 258.335c0,14.6628 -1.32061,27.9915 -4.16604,39.9995 -2.65483,12.1578 -6.82087,22.4912 -12.4981,31.0003 -5.50027,8.65883 -12.6615,15.3299 -21.334,20.1631 -8.82221,4.66978 -19.1556,6.99786 -30.8233,6.99786 -15.0032,0 -29.843,-5.66364 -44.8326,-17.1679 -15.0032,-11.3273 -31.1772,-27.9915 -48.3452,-49.6658l0 -289.662c0,-3.17218 -0.99386,-6.004 -2.99519,-8.49546 -1.83796,-2.50507 -5.1599,-4.50641 -9.99306,-6.16738 -4.66978,-1.51121 -11.0005,-2.83182 -18.6791,-3.67592 -7.82835,-0.830486 -17.8214,-1.15723 -29.8294,-1.15723 -11.9944,0 -22.0011,0.326748 -29.8294,1.15723 -7.66497,0.8441 -13.9957,2.16471 -18.6655,3.67592 -4.83315,1.66097 -8.16871,3.66231 -10.0067,6.16738 -2.00133,2.49146 -2.99519,5.32328 -2.99519,8.49546l0 436.005c0,3.15857 0.830486,5.99039 2.50507,8.49546 1.4976,2.50507 4.49279,4.49279 8.65883,6.16738 4.32942,1.4976 9.66631,2.83182 16.3374,3.66231 6.67111,0.830486 15.1666,1.17085 25.1596,1.17085 10.5104,0 19.0059,-0.340363 25.8404,-1.17085 6.83449,-0.830486 12.1714,-2.16471 15.9971,-3.66231 3.66231,-1.67459 6.33075,-3.66231 8.00534,-6.16738 1.66097,-2.50507 2.49146,-5.33689 2.49146,-8.49546l0 -50.3329c24.0024,25.9901 48.0048,45.3227 72.0072,58.3246 24.0024,13.0019 48.9987,19.496 75.0024,19.496 17.9984,0 34.1588,-1.82435 48.4949,-5.66364 14.3361,-3.66231 26.9976,-8.9992 38.3385,-15.9971 11.1639,-6.99786 20.8302,-15.3299 28.9989,-24.9963 8.16871,-9.8433 14.9896,-20.6668 20.4899,-32.6748 13.0019,14.0093 25.8404,26.0037 38.3385,36.0104 12.4981,9.99306 24.9963,18.3251 37.1676,24.6559 12.1714,6.34437 24.3291,11.0005 36.6639,14.0093 12.1714,3.15857 24.5061,4.65617 37.331,4.65617 28.8356,0 53.3417,-4.83315 73.178,-14.6628 19.8227,-9.66631 35.8334,-22.9949 47.9912,-39.8361 12.3348,-16.6642 21.0072,-36.3235 26.1671,-58.8283 5.17352,-22.5048 7.84196,-46.1668 7.84196,-71.3265l0 -278.839z"
   id="glyph1016" />
   <glyph
   unicode="n"
   horiz-adv-x="536"
   d="M478.006 16.5008c0,-3.17218 -1.00747,-6.004 -3.00881,-8.49546 -1.82435,-2.50507 -5.1599,-4.50641 -9.66631,-6.16738 -4.66978,-1.51121 -11.0005,-2.83182 -18.9923,-3.67592 -8.00534,-0.830486 -17.835,-1.15723 -29.5027,-1.15723 -12.1714,0 -22.1644,0.326748 -30.1698,1.15723 -8.00534,0.8441 -14.3361,2.16471 -19.0059,3.67592 -4.49279,1.66097 -7.82835,3.66231 -9.66631,6.16738 -1.98772,2.49146 -2.99519,5.32328 -2.99519,8.49546l0 248.506c0,21.157 -1.4976,37.8211 -4.66978,49.8291 -2.99519,12.1578 -7.5016,22.4912 -13.3286,31.0003 -5.82701,8.65883 -13.5056,15.3299 -22.6682,20.1631 -9.32595,4.66978 -19.9997,6.99786 -32.3345,6.99786 -15.6703,0 -31.327,-5.66364 -47.3241,-17.1679 -15.8337,-11.3273 -32.5115,-27.9915 -49.6794,-49.6658l0 -289.662c0,-3.17218 -0.99386,-6.004 -2.99519,-8.49546 -1.83796,-2.50507 -5.1599,-4.50641 -9.99306,-6.16738 -4.66978,-1.51121 -11.0005,-2.83182 -18.6791,-3.67592 -7.82835,-0.830486 -17.8214,-1.15723 -29.8294,-1.15723 -11.9944,0 -22.0011,0.326748 -29.8294,1.15723 -7.66497,0.8441 -13.9957,2.16471 -18.6655,3.67592 -4.83315,1.66097 -8.16871,3.66231 -10.0067,6.16738 -2.00133,2.49146 -2.99519,5.32328 -2.99519,8.49546l0 436.005c0,3.15857 0.830486,5.99039 2.50507,8.49546 1.4976,2.50507 4.49279,4.49279 8.65883,6.16738 4.32942,1.4976 9.66631,2.83182 16.3374,3.66231 6.67111,0.830486 15.1666,1.17085 25.1596,1.17085 10.5104,0 19.0059,-0.340363 25.8404,-1.17085 6.83449,-0.830486 12.1714,-2.16471 15.9971,-3.66231 3.66231,-1.67459 6.33075,-3.66231 8.00534,-6.16738 1.66097,-2.50507 2.49146,-5.33689 2.49146,-8.49546l0 -50.3329c24.0024,25.9901 48.5085,45.3227 73.5048,58.3246 24.8329,13.0019 50.8366,19.496 77.8342,19.496 29.666,0 54.6623,-4.83315 75.0024,-14.6628 20.3265,-9.66631 36.6639,-22.9949 49.3254,-39.8361 12.4981,-16.6642 21.5109,-36.3235 26.9976,-58.8283 5.50027,-22.5048 8.3457,-49.5024 8.3457,-80.9928l0 -269.173z"
   id="glyph1018" />
   <glyph
   unicode="r"
   horiz-adv-x="355"
   d="M341.997 411.839c0,-11.6676 -0.326748,-21.334 -0.99386,-28.8356 -0.667111,-7.5016 -1.67459,-13.3422 -2.83182,-17.5083 -1.33422,-4.16604 -3.17218,-7.16124 -5.17352,-8.82221 -2.16471,-1.67459 -4.83315,-2.3417 -8.16871,-2.3417 -2.49146,0 -5.50027,0.503737 -8.82221,1.67459 -3.17218,1.15723 -6.83449,2.32808 -11.0005,3.66231 -4.00267,1.33422 -8.50907,2.50507 -13.3422,3.66231 -4.99653,1.17085 -10.3334,1.67459 -16.1604,1.67459 -6.83449,0 -13.669,-1.33422 -20.5035,-4.16604 -6.83449,-2.84543 -13.9957,-7.01148 -21.334,-13.0019 -7.33823,-5.84063 -15.0032,-13.669 -22.9949,-23.3353 -8.00534,-9.82968 -16.5008,-21.8377 -25.677,-36.1738l0 -271.827c0,-3.17218 -0.99386,-6.004 -2.99519,-8.49546 -1.83796,-2.50507 -5.1599,-4.50641 -9.99306,-6.16738 -4.66978,-1.51121 -11.0005,-2.83182 -18.6791,-3.67592 -7.82835,-0.830486 -17.8214,-1.15723 -29.8294,-1.15723 -11.9944,0 -22.0011,0.326748 -29.8294,1.15723 -7.66497,0.8441 -13.9957,2.16471 -18.6655,3.67592 -4.83315,1.66097 -8.16871,3.66231 -10.0067,6.16738 -2.00133,2.49146 -2.99519,5.32328 -2.99519,8.49546l0 436.005c0,3.15857 0.830486,5.99039 2.50507,8.49546 1.4976,2.50507 4.49279,4.49279 8.65883,6.16738 4.32942,1.4976 9.66631,2.83182 16.3374,3.66231 6.67111,0.830486 15.1666,1.17085 25.1596,1.17085 10.5104,0 19.0059,-0.340363 25.8404,-1.17085 6.83449,-0.830486 12.1714,-2.16471 15.9971,-3.66231 3.66231,-1.67459 6.33075,-3.66231 8.00534,-6.16738 1.66097,-2.50507 2.49146,-5.33689 2.49146,-8.49546l0 -54.3355c11.3409,16.3238 22.1644,29.666 32.1711,40.1628 10.17,10.4968 19.8364,19.0059 28.8356,25.1732 9.16257,6.15376 18.3251,10.4968 27.5013,12.8249 8.9992,2.50507 18.1618,3.66231 27.3243,3.66231 4.16604,0 8.83582,-0.163374 13.669,-0.653497 4.83315,-0.503737 10.0067,-1.33422 15.1666,-2.50507 5.17352,-1.17085 9.82968,-2.50507 13.669,-3.83929 4.00267,-1.4976 6.83449,-2.99519 8.67245,-4.65617 1.66097,-1.67459 2.99519,-3.51255 3.82568,-5.33689 0.830486,-2.00133 1.4976,-4.66978 2.16471,-8.16871 0.667111,-3.33556 1.17085,-8.49546 1.51121,-15.3299 0.326748,-6.83449 0.490123,-16.0107 0.490123,-27.6647z"
   id="glyph1020" />
  </font>
</defs>
</svg>
